<?xml version="1.0" standalone="no"?>
<!DOCTYPE svg PUBLIC "-//W3C//DTD SVG 1.1//EN" "http://www.w3.org/Graphics/SVG/1.1/DTD/svg11.dtd" >
<svg>
<metadata>
Created by FontForge 20090914 at Wed Feb 25 12:56:20 2015
 By www-data
&#194;&#169; 2000 Adobe Systems Incorporated. All Rights Reserved.
</metadata>
<defs>
<font id="TrajanPro-Regular" horiz-adv-x="535" >
  <font-face 
    font-family="Trajan Pro"
    font-weight="400"
    font-stretch="normal"
    units-per-em="1000"
    panose-1="2 2 5 2 5 5 6 2 3 1"
    ascent="750"
    descent="-250"
    x-height="640"
    cap-height="753.001"
    bbox="-250.267 -256.007 1517 998"
    underline-thickness="50"
    underline-position="-50"
    unicode-range="U+0020-U+FB02"
  />
<missing-glyph horiz-adv-x="500" 
d="M0 0h500v700h-500v-700zM250 395l-170 255h340zM280 350l170 255v-510zM80 50l170 255l170 -255h-340zM50 605l170 -255l-170 -255v510z" />
    <glyph glyph-name=".notdef" horiz-adv-x="500" 
d="M0 0h500v700h-500v-700zM250 395l-170 255h340zM280 350l170 255v-510zM80 50l170 255l170 -255h-340zM50 605l170 -255l-170 -255v510z" />
    <glyph glyph-name="space" unicode=" " horiz-adv-x="325" 
 />
    <glyph glyph-name="exclam" unicode="!" horiz-adv-x="320" 
d="M143 206c1.33301 -19.333 2.83301 -32.833 4.5 -40.5s5.16699 -11.5 10.5 -11.5s8.5 3.5 9.5 10.5s1.83301 14.167 2.5 21.5c0 4 0.666992 17.167 2 39.5s2.83301 49.333 4.5 81l5.5 101.5c2 36 3.66699 69.5 5 100.5s2.66602 57.5 3.99902 79.5s2 34.333 2 37
c2.66699 37.333 5.83398 67.833 9.50098 91.5s5.5 37.167 5.5 40.5c0 6.66699 -2 10 -6 10c-3.33301 0 -8.33301 -1.66699 -15 -5c-14 -7.33301 -28 -17.5 -42 -30.5s-24.667 -25.5 -32 -37.5c-3.33301 -5.33301 -5 -10 -5 -14c0 -2.66699 0.333008 -5.5 1 -8.5
s1.66699 -6.5 3 -10.5c2 -8 3.83301 -21.5 5.5 -40.5s3.16699 -39 4.5 -60l3.5 -57c1 -17 1.5 -27.5 1.5 -31.5zM160 -17c15.333 0 27.834 5.16699 37.501 15.5s14.5 23.166 14.5 38.499c0 14.667 -4.83301 26.334 -14.5 35.001s-21.834 13 -36.501 13
c-18 0 -31 -5.83301 -39 -17.5s-12 -22.834 -12 -33.501c0 -11.333 4 -22.666 12 -33.999s20.667 -17 38 -17z" />
    <glyph glyph-name="quotedbl" unicode="&#x22;" horiz-adv-x="325" 
d="M100 755c-12.667 0 -22.832 -0.5 -30.499 -1.5s-11.5 -5.16699 -11.5 -12.5c0 -4 1.16699 -10.333 3.5 -19s5.16602 -20 8.49902 -34s6.83301 -31.167 10.5 -51.5s6.5 -44.166 8.5 -71.499c1.33301 -20 2.83301 -32.5 4.5 -37.5s3.83398 -7.5 6.50098 -7.5
s4.83398 2.5 6.50098 7.5s3.16699 17.5 4.5 37.5c2 27.333 4.83301 51.166 8.5 71.499s7.16699 37.5 10.5 51.5s6.16602 25.333 8.49902 34s3.5 15 3.5 19c0 7.33301 -3.83301 11.5 -11.5 12.5s-17.834 1.5 -30.501 1.5zM225.002 755c-12.667 0 -22.832 -0.5 -30.499 -1.5
s-11.5 -5.16699 -11.5 -12.5c0 -4 1.16699 -10.333 3.5 -19s5.16602 -20 8.49902 -34s6.83301 -31.167 10.5 -51.5s6.5 -44.166 8.5 -71.499c1.33301 -20 2.83301 -32.5 4.5 -37.5s3.83398 -7.5 6.50098 -7.5s4.83398 2.5 6.50098 7.5s3.16699 17.5 4.5 37.5
c2 27.333 4.83301 51.166 8.5 71.499s7.16699 37.5 10.5 51.5s6.16602 25.333 8.49902 34s3.5 15 3.5 19c0 7.33301 -3.83301 11.5 -11.5 12.5s-17.834 1.5 -30.501 1.5z" />
    <glyph glyph-name="numbersign" unicode="#" horiz-adv-x="571" 
d="M539 460v56h-112l32 238h-35l-32 -238h-160l33 238h-36l-33 -238h-132v-56h124l-25 -164h-131v-56h122l-38 -240h35l38 240h163l-37 -240h35l36 240h123v56h-114l24 164h120zM384 460l-24 -164h-161l25 164h160z" />
    <glyph glyph-name="dollar" unicode="$" horiz-adv-x="571" 
d="M280 0c17.333 0 38.168 3.33105 62.501 9.99805s47.5 17.834 69.5 33.501s40.833 36.167 56.5 61.5s23.5 56.666 23.5 93.999c0 28 -4.66699 52.833 -14 74.5s-22 41.334 -38 59.001s-34.5 34.167 -55.5 49.5s-43.5 30.666 -67.5 45.999l29 298
c12 0 25.333 -2.83301 40 -8.5s26.334 -12.5 35.001 -20.5c13.333 -12 21.5 -25 24.5 -39s4.5 -27.333 4.5 -40c0 -6 0.666992 -10 2 -12s3.33301 -3 6 -3c4.66699 0 7.33398 3.33301 8.00098 10c0.666992 4 1.16699 11.5 1.5 22.5s0.666016 22.667 0.999023 35
s0.666016 24 0.999023 35s0.5 19.167 0.5 24.5c0 7.33301 -2.66699 12.333 -8 15c-9.33301 3.33301 -24.166 6.5 -44.499 9.5s-42.833 4.5 -67.5 4.5l9 91c0 4.66699 -2.66699 6.33398 -8 5.00098l-23 -7c-4 -1.33301 -6 -4.33301 -6 -9l-7 -80
c-21.333 0 -44.166 -3.66699 -68.499 -11s-46.833 -18.333 -67.5 -33s-37.667 -33.334 -51 -56.001s-20 -49.334 -20 -80.001c0 -22.667 3.66699 -43.167 11 -61.5s18 -36.166 32 -53.499s31.5 -34.5 52.5 -51.5s45.5 -35.167 73.5 -54.5l-29 -320
c-20 0 -39.833 3.5 -59.5 10.5s-36.167 18.167 -49.5 33.5c-12.667 14.667 -20.334 29.5 -23.001 44.5s-3.66699 31.167 -3 48.5c0.666992 8.66699 0.666992 14.5 0 17.5s-2.33398 4.5 -5.00098 4.5c-5.33301 0 -9 -6.33301 -11 -19
c-0.666992 -3.33301 -1.66699 -8.66602 -3 -15.999s-2.5 -16.333 -3.5 -27s-2 -22.5 -3 -35.5s-1.5 -26.167 -1.5 -39.5c0 -10.667 1.5 -18 4.5 -22s10.833 -8.66699 23.5 -14c10 -4 21.167 -7.5 33.5 -10.5s24.666 -5.5 36.999 -7.5s23.833 -3.5 34.5 -4.5
s19.334 -1.5 26.001 -1.5l-8 -85c-0.666992 -7.33301 1.66602 -10.666 6.99902 -9.99902l19 6c6 1.33301 9.33301 4 10 8zM285.002 452.998c-36 25.333 -63.333 49.5 -82 72.5s-28 49.5 -28 79.5c0 25.333 5.5 45.833 16.5 61.5s23.833 28 38.5 37s29.667 15 45 18
s27.333 4.5 36 4.5zM310.002 334.998c34 -22 60.833 -45.333 80.5 -70s29.5 -54 29.5 -88c0 -40.667 -12 -73.5 -36 -98.5s-57.333 -38.5 -100 -40.5z" />
    <glyph glyph-name="percent" unicode="%" horiz-adv-x="870" 
d="M647 0c30 0 55.8359 5.66699 77.5029 17s39.667 26.166 54 44.499s24.833 38.833 31.5 61.5s10 45.334 10 68.001c0 20 -3.33301 40.333 -10 61s-16.834 39.5 -30.501 56.5s-30.834 31 -51.501 42s-45.334 16.5 -74.001 16.5c-30.667 0 -56.834 -5.66699 -78.501 -17
s-39.5 -26 -53.5 -44s-24.333 -38.5 -31 -61.5s-10 -45.833 -10 -68.5c0 -19.333 3.16699 -39.5 9.5 -60.5s16.333 -40 30 -57s30.834 -31 51.501 -42s45.667 -16.5 75 -16.5zM651.003 28c-18 0 -33.8301 4.83398 -47.4971 14.501s-25 22.167 -34 37.5
s-15.667 32.666 -20 51.999s-6.5 38.666 -6.5 57.999c0 20 2 39.167 6 57.5s10.167 34.166 18.5 47.499s19.166 24 32.499 32s29.666 12 48.999 12c18 0 33.667 -4.83301 47 -14.5s24.666 -22.167 33.999 -37.5s16.333 -32.666 21 -51.999s7 -38.666 7 -57.999
c0 -20 -2 -39 -6 -57s-10.167 -33.833 -18.5 -47.5s-19.333 -24.5 -33 -32.5s-30.167 -12 -49.5 -12zM300.006 -3.99902c3.33301 0.666992 6.66309 4.66602 9.99609 11.999l294 732l8 18c2 4.66699 3 8.33398 3 11.001s-2.33301 4 -7 4
c-6.66699 0 -22.167 -1.16699 -46.5 -3.5s-54.166 -5 -89.499 -8s-74.166 -5.66699 -116.499 -8s-84.833 -3.5 -127.5 -3.5c-30 0 -56.167 -5.66699 -78.5 -17s-40.833 -26 -55.5 -44s-25.667 -38.5 -33 -61.5s-11 -46.167 -11 -69.5c0 -19.333 3.16699 -39.5 9.5 -60.5
s16.333 -40 30 -57s30.834 -31 51.501 -42s45.667 -16.5 75 -16.5s54.833 5.66699 76.5 17s39.5 26.166 53.5 44.499s24.5 38.833 31.5 61.5s10.5 45.334 10.5 68.001c0 32 -6.33301 60.667 -19 86s-28 44.333 -46 57v2c4 0 15.667 0.666992 35 2l65.5 4.5
c24.333 1.66699 49 3.5 74 5.5s45.5 3.33301 61.5 4c-1.33301 -3.33301 -7.83301 -18.666 -19.5 -45.999l-44 -104l-60 -141.5l-68 -158l-67 -154.5l-57.5 -131c-1.33301 -3.33301 -1.16602 -6.33301 0.500977 -9s5.16699 -3.33398 10.5 -2.00098zM220.003 410
c-18 0 -33.8311 4.83496 -47.498 14.502s-25 22.167 -34 37.5s-15.667 32.666 -20 51.999s-6.5 38.666 -6.5 57.999c0 20 2 39.167 6 57.5s10.167 34.333 18.5 48s19.166 24.5 32.499 32.5s29.666 12 48.999 12c18 0 33.667 -4.83301 47 -14.5s24.5 -22.334 33.5 -38.001
s15.833 -33.167 20.5 -52.5s7 -38.666 7 -57.999c0 -20 -1.83301 -39 -5.5 -57s-9.83398 -33.833 -18.501 -47.5s-19.667 -24.5 -33 -32.5s-29.666 -12 -48.999 -12z" />
    <glyph glyph-name="ampersand" unicode="&#x26;" horiz-adv-x="775" 
d="M293 -17c36.667 0 69.333 4.50195 98 13.502s53.334 19.5 74.001 31.5s37.334 24 50.001 36l28 27c27.333 -22 50.166 -39.167 68.499 -51.5s34.666 -21.666 48.999 -27.999s28.333 -10.333 42 -12s29.834 -2.5 48.501 -2.5h98c4.66699 0 8.66699 0.666992 12 2s5 3 5 5
c0 4.66699 -4.66699 7 -14 7c-18 0 -38.333 4.16699 -61 12.5s-42 17.166 -58 26.499c-14 8 -32.167 19.5 -54.5 34.5s-50.166 36.5 -83.499 64.5c10.667 13.333 22 29.333 34 48s22.667 38.5 32 59.5s17.166 42.667 23.499 65s9.5 43.5 9.5 63.5
c0 5.33301 -1.16699 9.66602 -3.5 12.999s-7.16602 5.66602 -14.499 6.99902c-28 3.33301 -52 5.33301 -72 6s-36 1 -48 1c-4 0 -7.66699 -0.5 -11 -1.5s-5 -2.83301 -5 -5.5s1.16699 -4.5 3.5 -5.5s5.16602 -1.5 8.49902 -1.5c7.33301 0 15.666 -1 24.999 -3
s17.333 -6.33301 24 -13c7.33301 -7.33301 12.333 -15.5 15 -24.5s4 -17.167 4 -24.5c0 -30.667 -5 -61.167 -15 -91.5s-22 -55.166 -36 -74.499c-8 6.66699 -20.833 18 -38.5 34l-55.5 51.5l-55.5 53.5c-17.667 17.333 -30.834 30.666 -39.501 39.999l-68.5 76.5
c-19.667 23 -36.167 44.5 -49.5 64.5s-23.333 39.333 -30 58s-10 37.667 -10 57c0 23.333 3.83301 43.333 11.5 60s17.5 30.167 29.5 40.5s25.5 18 40.5 23s30.167 7.5 45.5 7.5c22 0 41.333 -4.5 58 -13.5s30.667 -19.167 42 -30.5c12.667 -13.333 21 -27.5 25 -42.5
s6 -29.167 6 -42.5c0 -7.33301 0.333008 -12.333 1 -15s2.33398 -4 5.00098 -4c2 0 3.83301 1 5.5 3s3.16699 6.66699 4.5 14c0.666992 4 1.5 10.833 2.5 20.5s1.83301 20.167 2.5 31.5s1.16699 22.833 1.5 34.5s0.5 21.167 0.5 28.5c0 6 -0.666992 10.833 -2 14.5
s-5 7.16699 -11 10.5c-13.333 7.33301 -30.5 13.333 -51.5 18s-44.167 7 -69.5 7c-33.333 0 -63.333 -5.83301 -90 -17.5s-49.334 -26.5 -68.001 -44.5s-32.834 -37.833 -42.501 -59.5s-14.5 -42.5 -14.5 -62.5c0 -22.667 3.5 -44.834 10.5 -66.501s19.833 -45.5 38.5 -71.5
c-19.333 -11.333 -38.166 -24.833 -56.499 -40.5s-34.666 -33.5 -48.999 -53.5s-25.833 -42.167 -34.5 -66.5s-13 -51.166 -13 -80.499c0 -22 4.5 -45.833 13.5 -71.5s23.167 -49.5 42.5 -71.5s44.333 -40.5 75 -55.5s68 -22.5 112 -22.5zM327.999 36.002
c-28 0 -54.168 5.33496 -78.501 16.002s-45.5 25.5 -63.5 44.5s-32.167 41.667 -42.5 68s-15.5 55.166 -15.5 86.499c0 40 8.5 73.667 25.5 101s38.5 49.666 64.5 66.999c6.66699 -10 15.5 -21.667 26.5 -35l33.5 -40l32.5 -37.5
c10.333 -11.667 18.833 -20.834 25.5 -27.501c6.66699 -7.33301 17.167 -18 31.5 -32l47.5 -46l53.5 -49.5c18.333 -16.333 34.5 -30.166 48.5 -41.499c-8.66699 -8.66699 -19 -17.5 -31 -26.5s-25.833 -17 -41.5 -24s-33.167 -12.667 -52.5 -17s-40.666 -6.5 -63.999 -6.5z
" />
    <glyph glyph-name="quotesingle" unicode="'" horiz-adv-x="200" 
d="M100 755c-12.667 0 -22.832 -0.5 -30.499 -1.5s-11.5 -5.16699 -11.5 -12.5c0 -4 1.16699 -10.333 3.5 -19s5.16602 -20 8.49902 -34s6.83301 -31.167 10.5 -51.5s6.5 -44.166 8.5 -71.499c1.33301 -20 2.83301 -32.5 4.5 -37.5s3.83398 -7.5 6.50098 -7.5
s4.83398 2.5 6.50098 7.5s3.16699 17.5 4.5 37.5c2 27.333 4.83301 51.166 8.5 71.499s7.16699 37.5 10.5 51.5s6.16602 25.333 8.49902 34s3.5 15 3.5 19c0 7.33301 -3.83301 11.5 -11.5 12.5s-17.834 1.5 -30.501 1.5z" />
    <glyph glyph-name="parenleft" unicode="(" horiz-adv-x="360" 
d="M137 319c0 50.667 5.16797 98.1631 15.501 142.496s23 84 38 119s30.667 64.833 47 89.5s30.5 43 42.5 55c4.66699 4.66699 7 8.33398 7 11.001c0 5.33301 -2.33301 8 -7 8c-2 0 -5.66699 -2 -11 -6c-15.333 -11.333 -34.833 -30.166 -58.5 -56.499
s-46.5 -58.5 -68.5 -96.5s-40.833 -80.667 -56.5 -128s-23.5 -97.666 -23.5 -150.999s7.16699 -102.666 21.5 -147.999s32 -86.166 53 -122.499s43.667 -67.5 68 -93.5s46.166 -46.333 65.499 -61c4.66699 -3.33301 7.66699 -5 9 -5c4.66699 0 7 2.33301 7 7
c0 2 -0.666992 3.83301 -2 5.5l-5 6.5c-20.667 24.667 -39.667 51 -57 79s-32.333 59 -45 93s-22.5 71.667 -29.5 113s-10.5 87.666 -10.5 138.999z" />
    <glyph glyph-name="parenright" unicode=")" horiz-adv-x="360" 
d="M223 301c0 -50.667 -5.16797 -98.168 -15.501 -142.501s-23 -84 -38 -119s-30.667 -64.833 -47 -89.5s-30.5 -43 -42.5 -55c-4.66699 -4.66699 -7 -8.33398 -7 -11.001c0 -5.33301 2.33301 -8 7 -8c2 0 5.66699 2 11 6c15.333 10.667 34.833 29.334 58.5 56.001
s46.5 59 68.5 97s40.833 80.833 56.5 128.5s23.5 98.5 23.5 152.5c0 52.667 -7.16699 101.5 -21.5 146.5s-32 85.667 -53 122s-43.667 67.5 -68 93.5s-46.166 46.333 -65.499 61c-4.66699 3.33301 -7.66699 5 -9 5c-4.66699 0 -7 -2.33301 -7 -7
c0 -2 0.666992 -3.83301 2 -5.5l5 -6.5c20.667 -24.667 39.667 -51 57 -79s32.333 -59 45 -93s22.5 -71.667 29.5 -113s10.5 -87.666 10.5 -138.999z" />
    <glyph glyph-name="asterisk" unicode="*" horiz-adv-x="350" 
d="M207 797c0 7.33301 -2.66211 11 -7.99512 11c-4.66699 0 -10.5 -1 -17.5 -3s-14 -4.5 -21 -7.5s-13 -6.16699 -18 -9.5s-7.5 -6.33301 -7.5 -9c0 -2 1.33301 -5.66699 4 -11c1.33301 -2.66699 3.5 -8.66699 6.5 -18s6 -19.333 9 -30s5.5 -20.834 7.5 -30.501
s3 -16.167 3 -19.5s-0.333008 -5.66602 -1 -6.99902c-2.66699 -0.666992 -5.33398 -0.333984 -8.00098 0.999023l-18 13.5c-9.33301 7 -19.833 14.333 -31.5 22s-23.334 14.334 -35.001 20.001s-21.167 8.5 -28.5 8.5c-6.66699 0 -10 -2.66699 -10 -8
c0 -4 0.166992 -9.66699 0.5 -17s1 -14.833 2 -22.5s2.16699 -14.167 3.5 -19.5s3 -8 5 -8c1.33301 0 2.83301 0.5 4.5 1.5s4.16699 1.5 7.5 1.5s9 -0.166992 17 -0.5s16.833 -0.666016 26.5 -0.999023s19.167 -1 28.5 -2s17 -2.16699 23 -3.5c2.66699 0 4 -1 4 -3
s-1 -4 -3 -6c-3.33301 -2.66699 -9.83301 -8.16699 -19.5 -16.5l-31 -27.5l-31 -28c-9.66699 -8.66699 -15.834 -15 -18.501 -19c-3.33301 -4 -5.33301 -7.16699 -6 -9.5s-1 -4.5 -1 -6.5c0 -3.33301 6.66699 -6.33301 20 -9s27.666 -4 42.999 -4c8 0 12 1.66699 12 5
c0 4 0.666992 8 2 12s2.66602 7.66699 3.99902 11s3.83301 9.16602 7.5 17.499l11.5 26l11.5 25c3.66699 7.66699 6.16699 12.5 7.5 14.5c0.666992 2 2 3 4 3c1.33301 0 2.16602 -0.666992 2.49902 -2s0.833008 -2.66602 1.5 -3.99902c2 -6 4.83301 -13.833 8.5 -23.5
s7.66699 -19.5 12 -29.5l12.5 -29c4 -9.33301 7.33301 -16.333 10 -21c5.33301 -9.33301 10 -14 14 -14s8.83301 1.83301 14.5 5.5s11.167 8.16699 16.5 13.5s10 10.833 14 16.5s6 10.5 6 14.5c0 3.33301 -3.66699 6.33301 -11 9c-3.33301 0.666992 -9 3.83398 -17 9.50098
s-16.5 12.167 -25.5 19.5s-17.5 14.666 -25.5 21.999s-13.333 13.666 -16 18.999c-2 3.33301 -2.33301 5.66602 -1 6.99902c2.66699 1.33301 4.66699 2 6 2c7.33301 0 17.333 0.166992 30 0.5s25.167 0.833008 37.5 1.5s23 1.16699 32 1.5s14.167 0.5 15.5 0.5
c8 2 12 5 12 9c0 4.66699 -1.16699 10.667 -3.5 18s-5 14.333 -8 21s-6 12.334 -9 17.001s-5.5 7 -7.5 7c-1.33301 0 -2.66602 -0.666992 -3.99902 -2s-3.33301 -3 -6 -5c-2 -2 -5.83301 -5.5 -11.5 -10.5s-12.834 -10.333 -21.501 -16s-18.167 -11.167 -28.5 -16.5
s-21.166 -9.33301 -32.499 -12c-2.66699 -0.666992 -4.33398 -0.666992 -5.00098 0c-1.33301 2 -1.33301 4.33301 0 7l9 32c3.33301 12 6.33301 24 9 36s4.83398 23.333 6.50098 34s2.5 19 2.5 25z" />
    <glyph glyph-name="plus" unicode="+" horiz-adv-x="510" 
d="M468 243v51h-187v187h-52v-187h-187v-51h188v-187h52v187h186z" />
    <glyph glyph-name="comma" unicode="," horiz-adv-x="250" 
d="M111 -2c0 -9.33301 -1.83398 -19.834 -5.50098 -31.501s-9.83398 -24.834 -18.501 -39.501l-4.5 -7c-1.66699 -2.66699 -2.5 -5 -2.5 -7c0 -4.66699 2.33301 -7 7 -7c4 0 8.33301 3 13 9c6.66699 8 13.334 16.833 20.001 26.5s12.834 19.5 18.501 29.5
s10.667 19.5 15 28.5l10.5 22.5c2.66699 6.66699 5 13.834 7 21.501s3 13.5 3 17.5c0 4.66699 -1.16699 10.5 -3.5 17.5s-6.83301 15.5 -13.5 25.5c-5.33301 8 -9 13.167 -11 15.5s-4.33301 3.5 -7 3.5c-6.66699 0 -13.667 -1.5 -21 -4.5s-14 -7 -20 -12
s-11 -10.833 -15 -17.5s-6 -13.334 -6 -20.001c0 -3.33301 1.83301 -6.66602 5.5 -9.99902s7.5 -7.66602 11.5 -12.999s7.83301 -11.833 11.5 -19.5s5.5 -17.167 5.5 -28.5z" />
    <glyph glyph-name="hyphen" unicode="-" horiz-adv-x="390" 
d="M73 310c-8 0 -13.333 -0.499023 -16 -1.49902s-4.66699 -3.16699 -6 -6.5l-15 -56c-2 -10 -0.333008 -15 5 -15c2.66699 0 7.83398 1.83301 15.501 5.5s16.167 6.83398 25.5 9.50098c5.33301 1.33301 14.5 3.16602 27.5 5.49902s27.5 4.66602 43.5 6.99902l50.5 7.5
l50 7.5l41.5 6l25 3.5c8 1.33301 15.833 3 23.5 5s11.5 6 11.5 12c0 4 -2.83301 6.66699 -8.5 8s-12.834 2 -21.501 2h-252z" />
    <glyph glyph-name="period" unicode="." horiz-adv-x="250" 
d="M124 0c17.333 0 31.002 5.66602 41.002 16.999s15 25 15 41s-5.33301 28.667 -16 38s-23.667 14 -39 14c-10 0 -18.333 -1.83301 -25 -5.5s-12.334 -8.16699 -17.001 -13.5s-8 -11.166 -10 -17.499s-3 -12.5 -3 -18.5c0 -12.667 4.16699 -25 12.5 -37
s22.166 -18 41.499 -18z" />
    <glyph glyph-name="slash" unicode="/" horiz-adv-x="552" 
d="M55 -15c4.66699 -2.66699 8.66699 -1 12 5l464 746c2.66699 4 2 7.33301 -2 10l-30 18c-5.33301 3.33301 -10 2 -14 -4l-461 -739c-4.66699 -8 -5 -13 -1 -15z" />
    <glyph glyph-name="zero" unicode="0" horiz-adv-x="571" 
d="M42 352c0 -44.667 5.00293 -88.999 15.0029 -132.999s24.667 -83.5 44 -118.5s43.666 -63.333 72.999 -85s63.666 -32.5 102.999 -32.5c40.667 0 76.667 10.833 108 32.5s57.666 51.167 78.999 88.5s37.5 81.333 48.5 132s16.5 104.667 16.5 162
c0 22 -1.66699 46.333 -5 73s-8.5 53.667 -15.5 81s-16.5 53.833 -28.5 79.5s-26.833 48.667 -44.5 69s-38.167 36.5 -61.5 48.5s-50.333 18 -81 18c-40 0 -75.5 -10.5 -106.5 -31.5s-57.333 -50.167 -79 -87.5s-38 -81.333 -49 -132s-16.5 -105.334 -16.5 -164.001z
M123.003 393.001c0 50.667 3.49805 96.667 10.498 138s17 76.833 30 106.5s28.667 52.5 47 68.5s39.166 24 62.499 24c28 0 53 -10.667 75 -32s40.333 -49.5 55 -84.5s25.834 -75 33.501 -120s11.5 -91.167 11.5 -138.5c0 -49.333 -3.66699 -94.5 -11 -135.5
s-17.666 -76.333 -30.999 -106s-29.166 -52.667 -47.499 -69s-38.833 -24.5 -61.5 -24.5c-30.667 0 -57 11.167 -79 33.5s-40 51.333 -54 87s-24.333 75.667 -31 120s-10 88.5 -10 132.5z" />
    <glyph glyph-name="one" unicode="1" horiz-adv-x="571" 
d="M341 486c0.666992 76.667 1.66797 138.166 3.00098 184.499s2 71.5 2 75.5c0 5.33301 -0.833008 10.166 -2.5 14.499s-4.5 6.5 -8.5 6.5c-3.33301 0 -7 -1.16699 -11 -3.5s-8.33301 -5.16602 -13 -8.49902l-193 -129c-4.66699 -3.33301 -7 -6.66602 -7 -9.99902
c0 -2 0.833008 -4 2.5 -6s3.16699 -3 4.5 -3c3.33301 0 7.33301 1.33301 12 4c6 2.66699 14.5 6.83398 25.5 12.501s22.167 11 33.5 16s22.166 9.5 32.499 13.5s17.833 6 22.5 6c8 0 13 -2.66699 15 -8s3 -13 3 -23v-152v-175c0 -50 -0.166992 -95.333 -0.5 -136
s-1.16602 -72 -2.49902 -94c-1.33301 -15.333 -4.5 -27 -9.5 -35s-15.833 -13.667 -32.5 -17c-4.66699 -1.33301 -11 -2.33301 -19 -3l-24 -2c-8 -0.666992 -15.5 -1.16699 -22.5 -1.5s-11.833 -0.5 -14.5 -0.5c-5.33301 0 -8 -2.66699 -8 -8c0 -4.66699 5.66699 -7 17 -7
c16 0 32.667 0.166992 50 0.5s33.5 0.666016 48.5 0.999023s27.5 0.666016 37.5 0.999023s15.667 0.5 17 0.5s6 -0.166992 14 -0.5s18.5 -0.666016 31.5 -0.999023s28 -0.666016 45 -0.999023s34.833 -0.5 53.5 -0.5c11.333 0 17 2.33301 17 7c0 2 -1 3.83301 -3 5.5
s-4 2.5 -6 2.5s-6 0.166992 -12 0.5s-12.333 0.833008 -19 1.5l-19.5 2c-6.33301 0.666992 -11.5 1.33398 -15.5 2.00098c-16 3.33301 -26.167 9.16602 -30.5 17.499s-7.5 20.166 -9.5 35.499c-2.66699 22 -4.33398 53.333 -5.00098 94s-0.666992 86 0 136z" />
    <glyph glyph-name="two" unicode="2" horiz-adv-x="571" 
d="M428 0c21.333 0 36.498 1.66504 45.498 4.99805s15.5 11.666 19.5 24.999c2.66699 8.66699 5.66699 19.5 9 32.5s6.5 26 9.5 39l8 36c2.33301 11 3.5 18.833 3.5 23.5c0 3.33301 -0.333008 6.66602 -1 9.99902s-2.33398 5 -5.00098 5c-5.33301 0 -9.33301 -5 -12 -15
c-6 -26.667 -17.833 -48.5 -35.5 -65.5s-44.834 -27.167 -81.501 -30.5c-9.33301 -1.33301 -22.666 -2.16602 -39.999 -2.49902s-35 -0.833008 -53 -1.5s-34.667 -1 -50 -1h-28h-73c-2.66699 0 -4.33398 0.666992 -5.00098 2s0.333008 3 3 5l69 59
c25.333 22 50.833 45.667 76.5 71s50.667 52.333 75 81s46 58.5 65 89.5s34.167 63 45.5 96s17 66.833 17 101.5c0 26.667 -4.66699 52.167 -14 76.5s-23.5 45.833 -42.5 64.5s-42.5 33.5 -70.5 44.5s-61 16.5 -99 16.5c-40.667 0 -75.5 -3.66699 -104.5 -11
s-52.833 -15.333 -71.5 -24c-4.66699 -3.33301 -7.5 -5.83301 -8.5 -7.5s-1.5 -4.16699 -1.5 -7.5c0 -8 0.333008 -18.333 1 -31l2 -38.5c0.666992 -13 1.33398 -24.667 2.00098 -35s1 -16.5 1 -18.5c0.666992 -8.66699 3.33398 -13 8.00098 -13c6 0 9 5 9 15
c0 19.333 2.83301 37.5 8.5 54.5s14.5 31.167 26.5 42.5c14.667 13.333 30.167 23 46.5 29s36.5 9 60.5 9c16.667 0 34.334 -3 53.001 -9s35.834 -16 51.501 -30s28.667 -32.833 39 -56.5s15.5 -53.5 15.5 -89.5c0 -48 -8.83301 -93.167 -26.5 -135.5
s-42 -83.666 -73 -123.999s-67.833 -80.666 -110.5 -120.999l-139 -127.5c-4 -3.33301 -8 -7.16602 -12 -11.499s-6 -8.5 -6 -12.5s1.5 -7.33301 4.5 -10s6.16699 -4 9.5 -4h379z" />
    <glyph glyph-name="three" unicode="3" horiz-adv-x="571" 
d="M420 203c0 -30 -4.66699 -56.001 -14 -78.001s-22.166 -40.333 -38.499 -55s-35.5 -25.667 -57.5 -33s-45.667 -11 -71 -11c-26 0 -48.167 3.5 -66.5 10.5s-33.333 16.5 -45 28.5s-20.5 26.167 -26.5 42.5s-10 34.166 -12 53.499c-0.666992 9.33301 -3 14 -7 14
c-4.66699 0 -7.33398 -5 -8.00098 -15c-0.666992 -5.33301 -1.5 -12.666 -2.5 -21.999s-1.83301 -19.666 -2.5 -30.999s-1.16699 -23.166 -1.5 -35.499s-0.5 -24.5 -0.5 -36.5c0 -6 0.833008 -11 2.5 -15s6.16699 -8.33301 13.5 -13
c5.33301 -3.33301 12.666 -6.33301 21.999 -9s19.833 -5.16699 31.5 -7.5s23.5 -4.16602 35.5 -5.49902s23 -2 33 -2c44.667 0 85.334 6.83301 122.001 20.5s68.167 32.167 94.5 55.5s46.666 50.5 60.999 81.5s21.5 64.167 21.5 99.5c0 28.667 -5.66699 54.167 -17 76.5
s-25.333 41.5 -42 57.5s-34.5 28.667 -53.5 38s-36.5 16 -52.5 20v5c8 3.33301 19.333 10 34 20s29.5 22.667 44.5 38s28 33.166 39 53.499s16.5 43.166 16.5 68.499c0 12.667 -2.66699 27.5 -8 44.5s-15.333 33.333 -30 49s-34.834 29 -60.501 40
s-58.834 16.5 -99.501 16.5c-38 0 -70.667 -3.83301 -98 -11.5s-48.666 -15.167 -63.999 -22.5c-6 -4 -9.66699 -7.33301 -11 -10s-2 -6.33398 -2 -11.001c0 -11.333 0.666992 -26.833 2 -46.5s3 -37.5 5 -53.5c0.666992 -7.33301 3 -11 7 -11
c1.33301 0 2.83301 0.666992 4.5 2s2.5 4.66602 2.5 9.99902c0 38.667 11.833 68 35.5 88s53.834 30 90.501 30c29.333 0 53.333 -5 72 -15s33.334 -22.167 44.001 -36.5s18 -29.166 22 -44.499s6 -28.333 6 -39c0 -29.333 -6 -54.5 -18 -75.5s-26.333 -38.333 -43 -52
s-34.167 -24.334 -52.5 -32.001s-33.5 -12.5 -45.5 -14.5c-6.66699 -1.33301 -12.167 -2.83301 -16.5 -4.5s-6.5 -4.16699 -6.5 -7.5c0 -5.33301 8.66699 -9.66602 26 -12.999c16 -3.33301 34.667 -9 56 -17s41.5 -19.5 60.5 -34.5s35.167 -34.167 48.5 -57.5
s20 -51.666 20 -84.999z" />
    <glyph glyph-name="four" unicode="4" horiz-adv-x="571" 
d="M416 600l-0.00488281 44c0 16 0.166992 31.333 0.5 46s0.5 27.334 0.5 38.001v22c0 11.333 -3.33301 17 -10 17c-5.33301 0 -12.333 -6 -21 -18l-37.5 -51l-69.5 -94l-84.5 -114l-82 -111l-63 -85c-17 -22.667 -25.833 -34.667 -26.5 -36
c-2 -2.66699 -4 -5.83398 -6 -9.50098s-3 -7.5 -3 -11.5c0 -4.66699 2 -7.83398 6 -9.50098s9 -2.5 15 -2.5h305v-32v-41c0 -14.667 -0.166992 -29.167 -0.5 -43.5s-0.833008 -26.833 -1.5 -37.5c-1.33301 -15.333 -4.66602 -27.833 -9.99902 -37.5
s-16.333 -15.834 -33 -18.501c-8 -1.33301 -16.667 -2.16602 -26 -2.49902s-16.333 -0.5 -21 -0.5c-5.33301 0 -8 -2.66699 -8 -8c0 -4.66699 5.33301 -7 16 -7c14 0 27.5 0.166992 40.5 0.5s24.833 0.666016 35.5 0.999023s19.5 0.666016 26.5 0.999023s11.5 0.5 13.5 0.5
s7 -0.166992 15 -0.5s18 -0.666016 30 -0.999023s25 -0.666016 39 -0.999023s28 -0.5 42 -0.5c10.667 0 16 2.33301 16 7c0 5.33301 -3 8 -9 8c-5.33301 0 -12.166 0.333008 -20.499 1s-16.166 1.66699 -23.499 3c-16 4 -26.833 10.333 -32.5 19s-9.16699 20.667 -10.5 36
c-1.33301 10.667 -2.16602 23.167 -2.49902 37.5s-0.5 28.833 -0.5 43.5s0.166992 28.5 0.5 41.5s0.5 23.5 0.5 31.5h92c6 0 10.333 0.833008 13 2.5s5.33398 5.16699 8.00098 10.5c2 6 4 13.5 6 22.5s3 14.833 3 17.5s-0.166992 5.33398 -0.5 8.00098s-1.83301 4 -4.5 4
c-2 0 -6 -1.83301 -12 -5.5s-15.667 -5.5 -29 -5.5h-76v321zM339.995 279h-256c3.33301 4 11.5 15 24.5 33l46.5 64l57.5 79.5l57 79.5l45.5 64.5l23 33.5h2v-354z" />
    <glyph glyph-name="five" unicode="5" horiz-adv-x="571" 
d="M190 687l188.997 -0.00488281c20 0 35.833 -1.5 47.5 -4.5s20.5 -7.33301 26.5 -13s9.83301 -12.5 11.5 -20.5s2.5 -16.667 2.5 -26c0 -8.66699 2 -13 6 -13c2 0 3.66699 1.16699 5 3.5s2.33301 4.83301 3 7.5c5.33301 36.667 8.83301 65.667 10.5 87s2.5 34.333 2.5 39
c0 6.66699 -2.33301 10 -7 10c-1.33301 0 -3.66602 -0.333008 -6.99902 -1s-8 -1.33398 -14 -2.00098c-6 -1.33301 -13.667 -2.33301 -23 -3s-21 -1 -35 -1h-235c-12 0 -18.333 -4.33301 -19 -13l-23 -255c-1.33301 -11.333 7.33398 -17.333 26.001 -18
c19.333 -1.33301 43.333 -7.16602 72 -17.499s56.5 -25.5 83.5 -45.5s50.167 -45 69.5 -75s29 -65 29 -105c0 -34.667 -5.16699 -64.167 -15.5 -88.5s-24 -44.333 -41 -60s-36 -27.167 -57 -34.5s-41.833 -11 -62.5 -11c-18 0 -35.333 1.66699 -52 5
s-31.334 9.83301 -44.001 19.5s-22.667 22.834 -30 39.501s-11 38.334 -11 65.001c0 11.333 -2.66699 17 -8 17c-2 0 -3.66699 -1.66699 -5 -5s-2.66602 -7.66602 -3.99902 -12.999c-1.33301 -8 -2.33301 -17.5 -3 -28.5s-1 -22.5 -1 -34.5v-34v-29
c0 -5.33301 1 -10.166 3 -14.499s7.33301 -8.83301 16 -13.5c12.667 -7.33301 27.334 -12.166 44.001 -14.499s32.667 -3.5 48 -3.5c50.667 0 94.667 8.33301 132 25s68.5 38.167 93.5 64.5s43.667 56 56 89s18.5 65.5 18.5 97.5c0 44.667 -10.333 83.167 -31 115.5
s-46.5 59.5 -77.5 81.5s-64.667 39.167 -101 51.5s-70.5 20.833 -102.5 25.5z" />
    <glyph glyph-name="six" unicode="6" horiz-adv-x="571" 
d="M446 195c0 -27.333 -3.66602 -51.834 -10.999 -73.501s-17.5 -40 -30.5 -55s-28.167 -26.333 -45.5 -34s-36 -11.5 -56 -11.5c-28.667 0 -53.5 7.5 -74.5 22.5s-38.333 34.5 -52 58.5s-23.834 50.833 -30.501 80.5s-10 59.167 -10 88.5c0 59.333 8 113.833 24 163.5
s36.833 94.167 62.5 133.5s54.5 73.333 86.5 102s64 52 96 70l13.5 8.5c3.66699 2.33301 5.5 5.5 5.5 9.5c0 6 -2.66699 9 -8 9c-3.33301 0 -10.333 -2.33301 -21 -7c-48.667 -21.333 -94 -49.666 -136 -84.999s-78.5 -74.833 -109.5 -118.5s-55.5 -90 -73.5 -139
s-27 -97.833 -27 -146.5c0 -45.333 5.66699 -85.833 17 -121.5s27.333 -65.834 48 -90.501s45.334 -43.5 74.001 -56.5s60.667 -19.5 96 -19.5c37.333 0 69.666 5.5 96.999 16.5s52.666 27.833 75.999 50.5c22 21.333 39.5 48.333 52.5 81s19.5 69 19.5 109
c0 22 -4 45 -12 69s-20.167 46 -36.5 66s-37.166 36.333 -62.499 49s-55.333 19 -90 19c-28 0 -51.833 -4 -71.5 -12s-34.5 -15.667 -44.5 -23c-6 -4 -9 -8 -9 -12c0 -5.33301 1.33301 -8 4 -8c1.33301 0 3.5 0.5 6.5 1.5s5.16699 1.83301 6.5 2.5
c11.333 5.33301 23.333 8.83301 36 10.5s25.667 2.5 39 2.5c15.333 0 31.833 -4.5 49.5 -13.5s34 -22.167 49 -39.5s27.5 -39.166 37.5 -65.499s15 -56.833 15 -91.5z" />
    <glyph glyph-name="seven" unicode="7" horiz-adv-x="571" 
d="M202 750c-32.667 0 -55.835 1.66602 -69.502 4.99902s-22.167 5 -25.5 5c-6.66699 0 -10 -4.66699 -10 -14c0 -2.66699 -0.833008 -10.834 -2.5 -24.501s-3.33398 -29.167 -5.00098 -46.5l-5 -51c-1.66699 -16.667 -2.5 -29 -2.5 -37c0 -10.667 2 -16 6 -16
c4.66699 0 7.66699 4.66699 9 14c1.33301 14 5.33301 28.167 12 42.5s15.334 25.833 26.001 34.5c12 10 26.833 16.667 44.5 20s33.834 5 48.501 5h246c-38 -65.333 -73 -130.333 -105 -195s-60.667 -126 -86 -184s-47 -111.167 -65 -159.5s-32 -88.833 -42 -121.5
c-1.33301 -4.66699 -2.66602 -10.167 -3.99902 -16.5s-2 -12.166 -2 -17.499c0 -6.66699 3 -10 9 -10c4.66699 0 12.5 2.16699 23.5 6.5s22 9.83301 33 16.5s20.667 13.334 29 20.001s12.5 12.667 12.5 18s-0.333008 10.333 -1 15s-0.333984 11.334 0.999023 20.001
c2.66699 21.333 9 49.333 19 84s22.5 72.5 37.5 113.5s31.5 83.5 49.5 127.5s36.167 86.167 54.5 126.5s36.333 77.166 54 110.499s33.167 60 46.5 80c2.66699 4 4.33398 7.66699 5.00098 11s1 6 1 8c0 6.66699 -6 10 -18 10h-324z" />
    <glyph glyph-name="eight" unicode="8" horiz-adv-x="571" 
d="M53 177c0 -30 6 -56.998 18 -80.998s28.167 -44.333 48.5 -61s44.333 -29.5 72 -38.5s57.167 -13.5 88.5 -13.5c36 0 68.5 6 97.5 18s54 28.167 75 48.5s37.167 43.666 48.5 69.999s17 54.166 17 83.499c0 30.667 -6 57.667 -18 81s-26.833 43.833 -44.5 61.5
s-36.5 32.5 -56.5 44.5s-38.333 22.333 -55 31c14 6.66699 29.333 15.667 46 27s32.167 24.833 46.5 40.5s26.333 34 36 55s14.5 44.5 14.5 70.5c0 24.667 -4.66699 46.5 -14 65.5s-22.166 35 -38.499 48s-35.666 22.833 -57.999 29.5s-46.5 10 -72.5 10
c-36.667 0 -68.334 -5.83301 -95.001 -17.5s-48.834 -26.167 -66.501 -43.5s-30.667 -36.666 -39 -57.999s-12.5 -41.333 -12.5 -60c0 -22 3.66699 -42.167 11 -60.5s17.333 -35 30 -50s27.5 -28.833 44.5 -41.5s35.167 -24.667 54.5 -36
c-22.667 -9.33301 -44.667 -20.833 -66 -34.5s-40.333 -29.834 -57 -48.501s-30 -39.667 -40 -63s-15 -49 -15 -77zM288 21.002c-23.333 0 -44.667 4.49805 -64 13.498s-36 21 -50 36s-24.833 32.667 -32.5 53s-11.5 41.5 -11.5 63.5c0 24.667 3.5 47.167 10.5 67.5
s16.667 38.666 29 54.999s26.666 30.5 42.999 42.5s33.833 22.667 52.5 32c22.667 -12 44.5 -24.167 65.5 -36.5s39.667 -26.333 56 -42s29.5 -33.667 39.5 -54s15 -44.166 15 -71.499c0 -22 -3.66699 -42.667 -11 -62s-17.666 -36.166 -30.999 -50.499
s-29.5 -25.666 -48.5 -33.999s-39.833 -12.5 -62.5 -12.5zM291.999 733c38.667 0 69.167 -12.333 91.5 -37s33.5 -56 33.5 -94c0 -25.333 -3.66699 -47.166 -11 -65.499s-16.5 -33.833 -27.5 -46.5s-22.667 -23.167 -35 -31.5s-23.5 -15.5 -33.5 -21.5
c-20.667 10.667 -40 21.667 -58 33s-33.667 23.666 -47 36.999s-23.833 28 -31.5 44s-11.5 34.667 -11.5 56c0 14 2.5 28.333 7.5 43s12.833 28.167 23.5 40.5s24.167 22.5 40.5 30.5s35.833 12 58.5 12z" />
    <glyph glyph-name="nine" unicode="9" horiz-adv-x="571" 
d="M288 767c-34.667 0 -66.499 -5.66895 -95.499 -17.002s-54.167 -27.333 -75.5 -48s-38 -45.167 -50 -73.5s-18 -59.833 -18 -94.5c0 -21.333 3.83301 -43.333 11.5 -66s19.667 -43.334 36 -62.001s37.333 -34.167 63 -46.5s56.167 -18.5 91.5 -18.5
c20 0 41.333 3.83301 64 11.5s41.334 19.167 56.001 34.5c2.66699 2.66699 4 5.33398 4 8.00098c0 4.66699 -1.66699 7 -5 7c-2.66699 0 -7 -2 -13 -6c-6.66699 -4 -15.834 -8 -27.501 -12s-29.167 -6 -52.5 -6c-6.66699 0 -18.334 2.5 -35.001 7.5s-33.5 14.833 -50.5 29.5
s-32 35 -45 61s-19.5 59.667 -19.5 101c0 20 2.83301 39.167 8.5 57.5s14.334 34.5 26.001 48.5s26 25.333 43 34s36.833 13 59.5 13c22 0 43 -5.5 63 -16.5s37.5 -27.5 52.5 -49.5s27 -49.5 36 -82.5s13.5 -71.5 13.5 -115.5c0 -58.667 -8.66699 -113 -26 -163
s-39.333 -94.667 -66 -134s-56 -73.333 -88 -102s-62.667 -51 -92 -67c-6.66699 -3.33301 -10 -8 -10 -14c0 -6.66699 2.66699 -10 8 -10s10.666 1.33301 15.999 4c20 10 42.5 23.167 67.5 39.5s50.333 35.833 76 58.5s50.667 48.334 75 77.001s46 60.334 65 95.001
s34.167 72.5 45.5 113.5s17 84.833 17 131.5c0 38 -5.33301 73.5 -16 106.5s-25.834 61.833 -45.501 86.5s-43.667 44 -72 58s-60.166 21 -95.499 21z" />
    <glyph glyph-name="colon" unicode=":" horiz-adv-x="250" 
d="M124 30c17.333 0 31.002 5.66602 41.002 16.999s15 25 15 41s-5.33301 28.667 -16 38s-23.667 14 -39 14c-10 0 -18.333 -1.83301 -25 -5.5s-12.334 -8.16699 -17.001 -13.5s-8 -11.166 -10 -17.499s-3 -12.5 -3 -18.5c0 -12.667 4.16699 -25 12.5 -37
s22.166 -18 41.499 -18zM124.002 367.999c17.333 0 31.002 5.66602 41.002 16.999s15 25 15 41s-5.33301 28.667 -16 38s-23.667 14 -39 14c-10 0 -18.333 -1.83301 -25 -5.5s-12.334 -8.16699 -17.001 -13.5s-8 -11.166 -10 -17.499s-3 -12.5 -3 -18.5
c0 -12.667 4.16699 -25 12.5 -37s22.166 -18 41.499 -18z" />
    <glyph glyph-name="semicolon" unicode=";" horiz-adv-x="250" 
d="M116 -2c0 -9.33301 -1.83398 -19.834 -5.50098 -31.501s-9.83398 -24.834 -18.501 -39.501l-4.5 -7c-1.66699 -2.66699 -2.5 -5 -2.5 -7c0 -4.66699 2.33301 -7 7 -7c4 0 8.33301 3 13 9c6.66699 8 13.334 16.833 20.001 26.5s12.834 19.5 18.501 29.5
s10.667 19.5 15 28.5l10.5 22.5c2.66699 6.66699 5 13.834 7 21.501s3 13.5 3 17.5c0 4.66699 -1.16699 10.5 -3.5 17.5s-6.83301 15.5 -13.5 25.5c-5.33301 8 -9 13.167 -11 15.5s-4.33301 3.5 -7 3.5c-6.66699 0 -13.667 -1.5 -21 -4.5s-14 -7 -20 -12
s-11 -10.833 -15 -17.5s-6 -13.334 -6 -20.001c0 -3.33301 1.83301 -6.66602 5.5 -9.99902s7.5 -7.66602 11.5 -12.999s7.83301 -11.833 11.5 -19.5s5.5 -17.167 5.5 -28.5zM123.999 367.999c17.333 0 31.002 5.66602 41.002 16.999s15 25 15 41s-5.33301 28.667 -16 38
s-23.667 14 -39 14c-10 0 -18.333 -1.83301 -25 -5.5s-12.334 -8.16699 -17.001 -13.5s-8 -11.166 -10 -17.499s-3 -12.5 -3 -18.5c0 -12.667 4.16699 -25 12.5 -37s22.166 -18 41.499 -18z" />
    <glyph glyph-name="less" unicode="&#x3c;" horiz-adv-x="510" 
d="M25 237l426 -198v53l-371 171l371 170v53l-426 -196v-53z" />
    <glyph glyph-name="equal" unicode="=" horiz-adv-x="510" 
d="M468 329v51h-426v-51h426zM468 153v51h-426v-51h426z" />
    <glyph glyph-name="greater" unicode="&#x3e;" horiz-adv-x="510" 
d="M468 237v53l-426 196v-53l372 -170l-372 -171v-53z" />
    <glyph glyph-name="question" unicode="?" horiz-adv-x="488" 
d="M223 733c22.667 0 41.4971 -4.49609 56.4971 -13.4961s27 -20 36 -33s15.333 -27 19 -42s5.5 -28.5 5.5 -40.5c0 -16.667 -1.33301 -32.834 -4 -48.501s-7.33398 -31.667 -14.001 -48s-15.667 -33.833 -27 -52.5s-25.666 -39 -42.999 -61
c-11.333 -14 -22.833 -27.5 -34.5 -40.5s-23.167 -27.167 -34.5 -42.5c-14.667 -18.667 -22 -35.334 -22 -50.001c0 -9.33301 2.33301 -18.333 7 -27s12 -19.334 22 -32.001c6 -7.33301 13.333 -15 22 -23s15.334 -12 20.001 -12c2 0 4.33301 1 7 3s4 4 4 6
c0 3.33301 -3 9 -9 17c-7.33301 9.33301 -12.333 18.333 -15 27s-4 16.667 -4 24c0 4 0.333008 8.33301 1 13s2.5 10 5.5 16s7.16699 13 12.5 21s12.666 18 21.999 30c24 30 46.5 56.333 67.5 79s39.167 44.5 54.5 65.5s27.5 42.667 36.5 65s13.5 48.166 13.5 77.499
c0 18 -3.16699 36.167 -9.5 54.5s-16.833 35 -31.5 50s-33.5 27.333 -56.5 37s-50.833 14.5 -83.5 14.5c-38.667 0 -72.167 -4.33301 -100.5 -13s-50.166 -17.667 -65.499 -27c-5.33301 -3.33301 -8.5 -6 -9.5 -8s-1.5 -4.66699 -1.5 -8v-33c0 -12 0.166992 -23.667 0.5 -35
s0.833008 -21.5 1.5 -30.5s1.33398 -15.167 2.00098 -18.5c0.666992 -6.66699 3.33398 -10 8.00098 -10c4 0 6.66699 5.66699 8 17c1.33301 17.333 4.5 33.5 9.5 48.5s13.5 29.833 25.5 44.5c8 10 20.167 19 36.5 27s36.833 12 61.5 12zM223.997 -16.9961
c15.333 0 27.834 5.16699 37.501 15.5s14.5 23.166 14.5 38.499c0 14.667 -4.83301 26.334 -14.5 35.001s-21.834 13 -36.501 13c-18 0 -31 -5.83301 -39 -17.5s-12 -22.834 -12 -33.501c0 -11.333 4 -22.666 12 -33.999s20.667 -17 38 -17z" />
    <glyph glyph-name="at" unicode="@" horiz-adv-x="906" 
d="M840 391c0 41.333 -6.66309 79.3262 -19.9961 113.993s-33.333 64.5 -60 89.5s-60.334 44.5 -101.001 58.5s-88.334 21 -143.001 21c-40.667 0 -79.834 -5.66699 -117.501 -17s-73.167 -27.166 -106.5 -47.499s-63.833 -44.5 -91.5 -72.5s-51.5 -58.833 -71.5 -92.5
s-35.5 -69.667 -46.5 -108s-16.5 -77.5 -16.5 -117.5c0 -56 8.83301 -104.5 26.5 -145.5s41.667 -75 72 -102s65.5 -47 105.5 -60s82.333 -19.5 127 -19.5c33.333 0 65.166 3.16699 95.499 9.5s58.166 14.666 83.499 24.999s47.833 22 67.5 35s36.167 25.833 49.5 38.5
c7.33301 7.33301 12.166 13.166 14.499 17.499s2.83301 7.5 1.5 9.5c-1.33301 2.66699 -4.16602 3.83398 -8.49902 3.50098s-10.5 -3.83301 -18.5 -10.5c-16.667 -13.333 -33.5 -25.666 -50.5 -36.999s-35.667 -21 -56 -29s-43.166 -14.167 -68.499 -18.5
s-54.666 -6.5 -87.999 -6.5c-42 0 -80.5 6.66699 -115.5 20s-65.167 32.833 -90.5 58.5s-45 56.834 -59 93.501s-21 78.667 -21 126c0 59.333 8.66699 114.666 26 165.999s42.166 96 74.499 134s71.666 67.833 117.999 89.5s98.833 32.5 157.5 32.5
c46.667 0 87.834 -6.83301 123.501 -20.5s65.5 -32.167 89.5 -55.5s42 -51 54 -83s18 -66 18 -102c0 -38 -4.5 -72.5 -13.5 -103.5s-20.667 -57.167 -35 -78.5s-31 -37.833 -50 -49.5s-38.5 -17.5 -58.5 -17.5c-17.333 0 -30.5 3.83301 -39.5 11.5s-15.5 18 -19.5 31
s-6 27.5 -6 43.5c0 16.667 0.666992 34 2 52c0.666992 10 1.83398 21.833 3.50098 35.5s3.83398 27.667 6.50098 42l8 41.5c2.66699 13.333 5.33398 24.666 8.00098 33.999c6 21.333 13 39 21 53s13.333 23 16 27c1.33301 3.33301 1.16602 6.33301 -0.500977 9
s-4.16699 3.33398 -7.5 2.00098c-4.66699 -1.33301 -10 -3.83301 -16 -7.5s-11.667 -7.66699 -17 -12s-10.333 -8.66602 -15 -12.999s-8 -7.83301 -10 -10.5c-4.66699 2 -11.334 4.5 -20.001 7.5s-20.667 4.5 -36 4.5c-16 0 -36 -5.16699 -60 -15.5s-47 -23.833 -69 -40.5
c-7.33301 -5.33301 -17.666 -14.166 -30.999 -26.499s-26.5 -28.166 -39.5 -47.499s-24.333 -42.666 -34 -69.999s-14.5 -58.666 -14.5 -93.999c0 -26 5.16699 -48.333 15.5 -67s22.833 -28 37.5 -28c21.333 0 48.666 12.167 81.999 36.5s66.666 61.5 99.999 111.5l3 -1
c-0.666992 -13.333 -1.16699 -24.5 -1.5 -33.5s-0.166016 -17.333 0.500977 -25s1.5 -14.667 2.5 -21s2.5 -13.166 4.5 -20.499c4.66699 -16 13.667 -28.5 27 -37.5s27.666 -13.5 42.999 -13.5c41.333 0 83 14 125 42s74.833 64 98.5 108s35.5 92 35.5 144zM545.004 436.993
l-11.999 -37.002c-3.33301 -10.667 -6.16602 -21 -8.49902 -31l-7.5 -31.5c-2.66699 -11 -5.33398 -23.833 -8.00098 -38.5c-8.66699 -14.667 -19.5 -30.167 -32.5 -46.5s-26.333 -31.5 -40 -45.5s-27 -25.667 -40 -35s-23.833 -14 -32.5 -14c-4 0 -7.5 2 -10.5 6
s-5.5 9 -7.5 15s-3.5 12.667 -4.5 20s-1.5 14 -1.5 20c0 22 2.66699 45.833 8 71.5s12.666 49.834 21.999 72.501c14 32 30.333 55.333 49 70s40.334 22 65.001 22c10.667 0 22.167 -2.16699 34.5 -6.5s21.166 -8.16602 26.499 -11.499z" />
    <glyph glyph-name="A" unicode="A" horiz-adv-x="700" 
d="M95 107c-9.33301 -25.333 -19.833 -46.5 -31.5 -63.5s-29.167 -27.167 -52.5 -30.5c-4 -0.666992 -9 -1.16699 -15 -1.5s-10.667 -0.5 -14 -0.5c-6 0 -9 -2 -9 -6c0 -5.33301 6.33301 -8 19 -8c12 0 24 0.166992 36 0.5s23.333 0.666016 34 0.999023
s19.834 0.666016 27.501 0.999023s12.834 0.5 15.501 0.5s7.16699 -0.166992 13.5 -0.5s13.166 -0.666016 20.499 -0.999023l23 -1c8 -0.333008 15 -0.5 21 -0.5c10 0 15 2.66699 15 8c0 4 -3.33301 6 -10 6h-10c-8.66699 0 -17.167 2.33301 -25.5 7s-12.5 12 -12.5 22
c0 18.667 4.66699 41 14 67l60 177c2 5.33301 5.33301 8 10 8h215c4 0 7 -2 9 -6l93 -246c3.33301 -8 4 -14.167 2 -18.5s-4.66699 -7.16602 -8 -8.49902c-4.66699 -1.33301 -7 -3.66602 -7 -6.99902s2.66699 -5.16602 8 -5.49902s12.666 -0.833008 21.999 -1.5
c17.333 -0.666992 34.5 -1.16699 51.5 -1.5s32.5 -0.5 46.5 -0.5h37h22c5.33301 0 10 0.5 14 1.5s6 3.16699 6 6.5c0 4 -3.33301 6 -10 6c-5.33301 0 -11.5 0.333008 -18.5 1s-14.167 2.33398 -21.5 5.00098c-5.33301 1.33301 -11.166 3.66602 -17.499 6.99902s-13 9 -20 17
s-14.667 19 -23 33s-16.833 32 -25.5 54l-37.5 95l-47 120.5l-49.5 128.5l-45.5 119.5l-35 92.5c-9.66699 25.333 -15.834 41 -18.501 47c-6 15.333 -10.333 25.166 -13 29.499s-5.66699 6.5 -9 6.5s-6.33301 -2.33301 -9 -7s-7 -15.334 -13 -32.001zM235 328
c-4 0 -5 2.33301 -3 7l88 270c4.66699 14.667 9.66699 14.667 15 0l95 -270c1.33301 -4.66699 0 -7 -4 -7h-191z" />
    <glyph glyph-name="B" unicode="B" horiz-adv-x="687" 
d="M178 287c0 -48 -0.166016 -90.835 -0.499023 -128.502s-1.83301 -67.167 -4.5 -88.5c-2 -14.667 -4.83301 -27 -8.5 -37s-10.5 -16 -20.5 -18c-4.66699 -1.33301 -9.66699 -2.33301 -15 -3s-10.333 -1 -15 -1c-5.33301 0 -8 -2 -8 -6c0 -5.33301 5.33301 -8 16 -8
c7.33301 0 16.333 0.333008 27 1s21 1 31 1c10.667 0.666992 19.667 1 27 1h13c2 0 9 -0.166992 21 -0.5s25.333 -1.16602 40 -2.49902l43 -2c14 -0.666992 23.667 -1 29 -1c42.667 0 80 6.33301 112 19s58.5 29.334 79.5 50.001s36.833 44 47.5 70s16 52.333 16 79
c0 29.333 -5.5 55.666 -16.5 78.999s-25 43.833 -42 61.5s-35.667 32.334 -56 44.001s-39.833 20.5 -58.5 26.5c12 12 23.5 24.333 34.5 37s21 26.167 30 40.5s16.167 29.833 21.5 46.5s8 35.334 8 56.001c0 12.667 -2.66699 27.5 -8 44.5s-15.5 33.333 -30.5 49
s-35.5 29 -61.5 40s-59.333 16.5 -100 16.5c-23.333 0 -44.333 -0.5 -63 -1.5s-34 -1.5 -46 -1.5c-1.33301 0 -5.83301 0.166992 -13.5 0.5s-17 0.666016 -28 0.999023s-22.833 0.666016 -35.5 0.999023s-24.667 0.5 -36 0.5c-10.667 0 -16 -2.66699 -16 -8
c0 -4 2.66699 -6 8 -6c4.66699 0 10.5 -0.166992 17.5 -0.5s12.5 -1.16602 16.5 -2.49902c16.667 -3.33301 27.667 -9.33301 33 -18s8.66602 -21.667 9.99902 -39c0.666992 -8 1.16699 -16.5 1.5 -25.5s0.5 -21.167 0.5 -36.5v-59v-95v-176zM258.001 708.998
c0 5.33301 4 9.00098 12 11.001s16.667 3.33301 26 4s16.666 1 21.999 1c24.667 0 45.5 -5 62.5 -15s30.833 -23.167 41.5 -39.5s18.5 -34.833 23.5 -55.5s7.5 -41.334 7.5 -62.001s-3.33301 -39.667 -10 -57s-15.334 -32 -26.001 -44c-5.33301 -6 -10.5 -10.667 -15.5 -14
s-10.667 -6 -17 -8s-14.166 -3.16699 -23.499 -3.5s-21 -0.5 -35 -0.5c-18.667 0 -32.667 0.5 -42 1.5s-15.666 1.83301 -18.999 2.5c-4.66699 2 -7 5.66699 -7 11v268zM258.001 391.999c0 4.66699 2 6.99805 6 6.99805h17h23c8 0 15.5 -0.166992 22.5 -0.5
s12.167 -0.833008 15.5 -1.5c12 -1.33301 24.5 -3.66602 37.5 -6.99902s28.167 -10.666 45.5 -21.999c19.333 -13.333 35.166 -28.333 47.499 -45s22.166 -34 29.499 -52s12.5 -36 15.5 -54s4.5 -34.333 4.5 -49c0 -28 -4.83301 -51.167 -14.5 -69.5
s-21.667 -32.833 -36 -43.5s-29.666 -18.167 -45.999 -22.5s-31.166 -6.5 -44.499 -6.5c-4.66699 0 -10.5 0.166992 -17.5 0.5s-14.667 1 -23 2s-16.666 2.5 -24.999 4.5s-15.833 4.66699 -22.5 8c-8 4 -14 8 -18 12s-7.16699 8.83301 -9.5 14.5s-3.83301 12.667 -4.5 21
s-1.33398 18.5 -2.00098 30.5c0 4 -0.166992 13.833 -0.5 29.5s-0.5 34.167 -0.5 55.5v67v64v57z" />
    <glyph glyph-name="C" unicode="C" horiz-adv-x="805" 
d="M515 -17c16 0 32.499 0.494141 49.499 1.49414s33.5 2.33301 49.5 4s31 4 45 7s26 6.5 36 10.5c9.33301 4 15.166 7.5 17.499 10.5s5.16602 9.16699 8.49902 18.5c2.66699 8.66699 5.33398 19.834 8.00098 33.501s5 27.167 7 40.5s3.66699 25.166 5 35.499s2 16.5 2 18.5
c0 4 -0.5 7.5 -1.5 10.5s-2.83301 4.5 -5.5 4.5c-4.66699 0 -8 -5 -10 -15c-1.33301 -9.33301 -5.16602 -22.833 -11.499 -40.5s-14.833 -32.167 -25.5 -43.5c-20 -20.667 -44.5 -34.167 -73.5 -40.5s-62.5 -9.5 -100.5 -9.5c-53.333 0 -102.166 10.167 -146.499 30.5
s-82.333 47.333 -114 81s-56.334 72.5 -74.001 116.5s-26.5 90 -26.5 138c0 51.333 5.83301 98.833 17.5 142.5s35.834 83.167 72.501 118.5c8.66699 8.66699 19.334 17.334 32.001 26.001s28.167 16.5 46.5 23.5s39.833 12.667 64.5 17s53.667 6.5 87 6.5
c44 0 84 -5.66699 120 -17s62.667 -24.666 80 -39.999c13.333 -11.333 23.666 -26.333 30.999 -45s11 -37.667 11 -57c0 -14 2.66699 -21 8 -21s8.33301 7 9 21c0 4 0.166992 10 0.5 18s0.5 17 0.5 27s0.166992 20.167 0.5 30.5s0.833008 19.5 1.5 27.5
c1.33301 18 2.5 30.833 3.5 38.5s1.5 13.5 1.5 17.5c0 3.33301 -0.833008 5.83301 -2.5 7.5s-5.16699 2.83398 -10.5 3.50098c-16 1.33301 -32.167 3.33301 -48.5 6l-53.5 9c-24.667 4.66699 -50 7.83398 -76 9.50098s-49 2.5 -69 2.5c-38.667 0 -73.5 -2.83301 -104.5 -8.5
s-58.833 -13.167 -83.5 -22.5s-46.667 -20.666 -66 -33.999s-36.333 -27.333 -51 -42c-22 -22 -40.333 -45.5 -55 -70.5s-26.167 -49.667 -34.5 -74s-14.166 -47.666 -17.499 -69.999s-5 -41.833 -5 -58.5c0 -24 1.83301 -48.833 5.5 -74.5s10 -51.167 19 -76.5
s21.333 -50.333 37 -75s35.5 -48 59.5 -70c40 -36 86.167 -63 138.5 -81s116.166 -27 191.499 -27z" />
    <glyph glyph-name="D" unicode="D" horiz-adv-x="917" 
d="M178 287c0 -48 -0.165039 -90.8379 -0.498047 -128.505s-1.83301 -67.167 -4.5 -88.5c-2 -14.667 -4.83301 -27 -8.5 -37s-10.5 -16 -20.5 -18c-4.66699 -1.33301 -9.66699 -2.33301 -15 -3s-10.333 -1 -15 -1c-5.33301 0 -8 -2 -8 -6c0 -5.33301 5.33301 -8 16 -8
c7.33301 0 16.333 0.333008 27 1s21 1 31 1c10.667 0.666992 19.667 1 27 1h13c2.66699 0 11.667 -0.666992 27 -2s34 -2.66602 56 -3.99902c21.333 -1.33301 44.5 -2.66602 69.5 -3.99902s48.167 -2 69.5 -2c42.667 0 80.334 3.83301 113.001 11.5
s61.334 17.334 86.001 29.001s45.5 24.167 62.5 37.5s30.833 25.666 41.5 36.999c14 14.667 27.5 31.667 40.5 51s24.5 40.833 34.5 64.5s18 49.5 24 77.5s9 57.667 9 89c0 30 -2.66699 57.667 -8 83s-12.5 48.5 -21.5 69.5s-19.333 39.833 -31 56.5
s-23.834 31.667 -36.501 45c-30 30.667 -63 53.834 -99 69.501s-72.333 26.834 -109 33.501s-71.834 10.167 -105.501 10.5s-62.834 0.5 -87.501 0.5c-15.333 0 -30.333 -0.166992 -45 -0.5s-28.167 -0.666016 -40.5 -0.999023s-23 -0.666016 -32 -0.999023
s-14.833 -0.5 -17.5 -0.5c-1.33301 0 -5.83301 0.166992 -13.5 0.5s-17 0.666016 -28 0.999023s-22.833 0.666016 -35.5 0.999023s-24.667 0.5 -36 0.5c-10.667 0 -16 -2.66699 -16 -8c0 -4 2.66699 -6 8 -6c4.66699 0 10.5 -0.166992 17.5 -0.5
s12.5 -1.16602 16.5 -2.49902c16.667 -3.33301 27.667 -9.33301 33 -18s8.66602 -21.667 9.99902 -39c0.666992 -8 1.16699 -16.5 1.5 -25.5s0.5 -21.167 0.5 -36.5v-59v-95v-176zM262.002 478.995l-0.000976562 61.001v61c0 20 0.166992 38 0.5 54s0.5 28.333 0.5 37
c0 10 4 16.667 12 20c2 0.666992 5.5 1.5 10.5 2.5s10.833 1.83301 17.5 2.5s13.167 1.16699 19.5 1.5s12.166 0.5 17.499 0.5c30 0 59.5 -1.16699 88.5 -3.5s57.167 -7.5 84.5 -15.5s54 -19.5 80 -34.5s50.667 -34.833 74 -59.5c10 -10.667 20.667 -23.834 32 -39.501
s21.833 -34 31.5 -55s17.5 -44.5 23.5 -70.5s9 -55 9 -87c0 -23.333 -1.66699 -46.333 -5 -69s-8.5 -44.5 -15.5 -65.5s-15.5 -40.5 -25.5 -58.5s-21.333 -33.333 -34 -46c-30 -30 -65.5 -53 -106.5 -69s-84.833 -24 -131.5 -24c-29.333 0 -54.166 1.16699 -74.499 3.5
s-37 5.5 -50 9.5s-23 8.33301 -30 13s-12.167 9.33398 -15.5 14.001c-2 2.66699 -3.66699 7 -5 13s-2.33301 12.667 -3 20l-2 22.5c-0.666992 7.66699 -1 14.5 -1 20.5c0 4.66699 -0.166992 13.667 -0.5 27s-0.666016 29.666 -0.999023 48.999s-0.5 41 -0.5 65v76v124z" />
    <glyph glyph-name="E" unicode="E" horiz-adv-x="610" 
d="M178 287c0 -48 -0.166016 -90.8359 -0.499023 -128.503s-1.83301 -67.167 -4.5 -88.5c-2 -14.667 -4.83301 -27 -8.5 -37s-10.5 -16 -20.5 -18c-4.66699 -1.33301 -9.66699 -2.33301 -15 -3s-10.333 -1 -15 -1c-5.33301 0 -8 -2 -8 -6c0 -5.33301 5.33301 -8 16 -8
c7.33301 0 16.333 0.333008 27 1s21 1 31 1c10.667 0.666992 19.667 1 27 1h13c7.33301 0 17.333 -0.166992 30 -0.5s28.667 -1.16602 48 -2.49902c19.333 -0.666992 42.833 -1.33398 70.5 -2.00098s60.5 -1 98.5 -1c10 0 18 0.166992 24 0.5s11 1.33301 15 3
s7 4.16699 9 7.5s4 8.33301 6 15c1.33301 5.33301 2.66602 13 3.99902 23l4 30.5l3.5 28c1 8.33301 1.5 13.5 1.5 15.5c0 3.33301 -0.166992 6.66602 -0.5 9.99902s-2.16602 5 -5.49902 5c-4 0 -7 -5 -9 -15c-3.33301 -20.667 -8.33301 -36.5 -15 -47.5
s-16.667 -19.167 -30 -24.5s-29.333 -8.5 -48 -9.5s-34.667 -1.5 -48 -1.5c-24.667 0 -44.334 1 -59.001 3s-26.167 6 -34.5 12s-14 14.333 -17 25s-4.83301 24.667 -5.5 42v31v50v52v38v88c0 4.66699 2.33301 7 7 7c4 0 12.5 -0.166992 25.5 -0.5
s27 -0.666016 42 -0.999023s29.667 -0.833008 44 -1.5s24.833 -1.33398 31.5 -2.00098c19.333 -2 32.333 -6.5 39 -13.5s11 -14.167 13 -21.5c2 -6.66699 3.16699 -12.5 3.5 -17.5s0.5 -10.167 0.5 -15.5c0 -6 2.33301 -9 7 -9c3.33301 0 5.33301 2.16699 6 6.5
s1 8.5 1 12.5c0 2 0.166992 5.5 0.5 10.5s0.666016 10.667 0.999023 17l1 19c0.333008 6.33301 0.833008 12.166 1.5 17.499c1.33301 16.667 3 29.334 5 38.001s3 14.667 3 18c0 5.33301 -1.66699 8 -5 8c-2.66699 0 -7.66699 -4.33301 -15 -13
c-4.66699 -5.33301 -10.667 -8.66602 -18 -9.99902s-17 -2.66602 -29 -3.99902c-6 -0.666992 -17 -1.16699 -33 -1.5s-33 -0.5 -51 -0.5h-48h-27c-4 0 -6 3.33301 -6 10v276c0 6.66699 2 10 6 10h23c13.333 0 27.666 -0.166992 42.999 -0.5l44 -1
c14 -0.333008 23 -0.833008 27 -1.5c26.667 -3.33301 44.334 -7.83301 53.001 -13.5s14.667 -12.5 18 -20.5c2.66699 -6 4.33398 -12.667 5.00098 -20s1 -12.666 1 -15.999c0 -8.66699 2.66699 -13 8 -13c2 0 3.5 1.16699 4.5 3.5s1.83301 4.83301 2.5 7.5
s1.16699 7.16699 1.5 13.5s0.833008 13 1.5 20s1.16699 13.5 1.5 19.5s0.5 10.333 0.5 13c1.33301 14 3 24.5 5 31.5s3 12.167 3 15.5c0 6 -1.33301 9 -4 9s-5 -0.666992 -7 -2s-4.33301 -2.33301 -7 -3c-9.33301 -2 -23.666 -3.66699 -42.999 -5
c-6 0 -20.833 -0.166992 -44.5 -0.5s-49.167 -0.5 -76.5 -0.5h-73h-35l-41 2c-11.333 0.666992 -23.333 1 -36 1h-36c-10.667 0 -16 -2.66699 -16 -8c0 -4 2.66699 -6 8 -6c4.66699 0 10.5 -0.166992 17.5 -0.5s12.5 -1.16602 16.5 -2.49902
c16.667 -3.33301 27.667 -9.33301 33 -18s8.66602 -21.667 9.99902 -39c0.666992 -8 1.16699 -16.5 1.5 -25.5s0.5 -21.167 0.5 -36.5v-59v-95v-176z" />
    <glyph glyph-name="F" unicode="F" horiz-adv-x="592" 
d="M178 287c0 -48 -0.163086 -90.8398 -0.496094 -128.507s-1.83301 -67.167 -4.5 -88.5c-2 -14.667 -4.83301 -27 -8.5 -37s-10.5 -16 -20.5 -18c-4.66699 -1.33301 -9.66699 -2.33301 -15 -3s-10.333 -1 -15 -1c-5.33301 0 -8 -2 -8 -6c0 -5.33301 5.33301 -8 16 -8
c7.33301 0 16.333 0.166992 27 0.5l31 1c10 0.333008 18.833 0.666016 26.5 0.999023s12.167 0.5 13.5 0.5s5.83301 -0.166992 13.5 -0.5s17.334 -0.666016 29.001 -0.999023s24.5 -0.666016 38.5 -0.999023s28 -0.5 42 -0.5c10.667 0 16 2.66699 16 8c0 4 -2.66699 6 -8 6
c-4.66699 0 -11.5 0.333008 -20.5 1s-17.167 1.66699 -24.5 3c-15.333 2 -25.333 8 -30 18s-7.66699 22.333 -9 37c-2.66699 21.333 -4.16699 50.833 -4.5 88.5s-0.5 80.5 -0.5 128.5v85c0 6 2.33301 9 7 9h27c14 0 29.167 -0.166992 45.5 -0.5l47 -1
c15 -0.333008 25.5 -0.833008 31.5 -1.5c15.333 -2 27.166 -6.66699 35.499 -14s13.833 -14.666 16.5 -21.999c2 -6 3.33301 -12.167 4 -18.5s1.33398 -12.166 2.00098 -17.499c0 -6 2.33301 -9 7 -9c3.33301 0 5.33301 2 6 6s1 8.33301 1 13c0 2 0.166992 5.66699 0.5 11
s0.666016 11.333 0.999023 18l1 20c0.333008 6.66699 0.833008 12.667 1.5 18c1.33301 16.667 3 29.334 5 38.001s3 14.667 3 18c0 5.33301 -1.66699 8 -5 8c-2 0 -3.83301 -1 -5.5 -3s-3.5 -4.33301 -5.5 -7c-4.66699 -6.66699 -10.5 -11 -17.5 -13
s-16.5 -3.66699 -28.5 -5c-7.33301 -0.666992 -14.666 -1 -21.999 -1h-23l-128 -1c-4.66699 0 -7 3 -7 9v276c0 7.33301 3 11 9 11l154 -3c19.333 -0.666992 34.666 -4.5 45.999 -11.5s18.666 -13.833 21.999 -20.5s5.66602 -13.667 6.99902 -21s2 -13 2 -17
c0 -8 2.33301 -12 7 -12c2.66699 0 4.5 1.16699 5.5 3.5s1.83301 4.83301 2.5 7.5s1.16699 7.16699 1.5 13.5s0.833008 13 1.5 20s1.16699 13.5 1.5 19.5s0.5 10.333 0.5 13c1.33301 14 3 24.5 5 31.5s3 12.167 3 15.5c0 6 -2 9 -6 9c-2 0 -4 -0.666992 -6 -2
s-4.66699 -2.66602 -8 -3.99902c-4.66699 -1.33301 -10.834 -2.16602 -18.501 -2.49902s-16.167 -0.833008 -25.5 -1.5c-4 0 -12.333 -0.166992 -25 -0.5s-27.667 -0.5 -45 -0.5h-54h-55h-44h-23l-41 2c-11.333 0.666992 -23.333 1 -36 1h-36c-10.667 0 -16 -2.66699 -16 -8
c0 -4 2.66699 -6 8 -6c4.66699 0 10.5 -0.166992 17.5 -0.5s12.5 -1.16602 16.5 -2.49902c16.667 -3.33301 27.667 -9.33301 33 -18s8.66602 -21.667 9.99902 -39c0.666992 -8 1.16699 -16.5 1.5 -25.5s0.5 -21.167 0.5 -36.5v-59v-95v-176z" />
    <glyph glyph-name="G" unicode="G" horiz-adv-x="862" 
d="M653 82c0 -16 -6.66406 -27.6738 -19.9971 -35.0068c-6.66699 -4 -14.667 -7.33301 -24 -10s-19.166 -4.83398 -29.499 -6.50098s-20.833 -2.83398 -31.5 -3.50098s-20.334 -1 -29.001 -1c-46 0 -91.167 8.16699 -135.5 24.5s-86.5 43.833 -126.5 82.5
c-8.66699 8.66699 -19.167 21.334 -31.5 38.001s-24 36.834 -35 60.501s-20.333 50.5 -28 80.5s-11.5 62.667 -11.5 98c0 58.667 9.16699 109.834 27.5 153.501s42.166 77.167 71.499 100.5c18.667 14.667 37.5 26.5 56.5 35.5s37.5 15.667 55.5 20
s35.5 7.16602 52.5 8.49902s33.5 2 49.5 2c32 0 61.167 -2.5 87.5 -7.5s49.333 -11.333 69 -19s36.167 -16.334 49.5 -26.001s23 -19.167 29 -28.5c7.33301 -12 12.5 -24.167 15.5 -36.5s4.83301 -22.166 5.5 -29.499c1.33301 -10 3.66602 -15 6.99902 -15
s5.66602 1.5 6.99902 4.5s2 8.5 2 16.5c0 24.667 0.333008 45.334 1 62.001s1.5 30.334 2.5 41.001s1.83301 19 2.5 25s1 10.667 1 14c0 2 -0.666992 3.83301 -2 5.5s-4.66602 2.83398 -9.99902 3.50098c-12.667 0.666992 -26.667 1.83398 -42 3.50098
s-28.333 3.83398 -39 6.50098c-4.66699 0.666992 -12.334 2 -23.001 4s-23 4 -37 6s-29 3.66699 -45 5s-32 2 -48 2c-19.333 0 -39.833 -0.666992 -61.5 -2s-43.834 -4.16602 -66.501 -8.49902s-45.667 -10.666 -69 -18.999s-46.333 -19.5 -69 -33.5
c-22 -14 -43.167 -31.5 -63.5 -52.5s-38.166 -45.333 -53.499 -73s-27.5 -58.5 -36.5 -92.5s-13.5 -71 -13.5 -111c0 -31.333 3.33301 -61.333 10 -90s15.5 -55.167 26.5 -79.5s23.667 -46.333 38 -66s29.166 -36.167 44.499 -49.5c28 -24 57.167 -43.167 87.5 -57.5
s60.333 -25.166 90 -32.499s57.5 -12 83.5 -14s48.667 -3 68 -3c14.667 0 30.834 0.666992 48.501 2s36 3.83301 55 7.5s37.833 8.33398 56.5 14.001s36 12.834 52 21.501c2.66699 2 5 3.66699 7 5s3.33301 3.83301 4 7.5s1.16699 8.66699 1.5 15s0.5 15.166 0.5 26.499v112
v56c0 16 0.666992 32 2 48c1.33301 17.333 4.5 30.5 9.5 39.5s14.167 14.833 27.5 17.5c6 1.33301 10.833 2.16602 14.5 2.49902s7.16699 0.5 10.5 0.5c5.33301 0 8 2 8 6c0 5.33301 -5.33301 8 -16 8c-7.33301 0 -16.333 -0.166992 -27 -0.5l-31 -1
c-10 -0.333008 -18.833 -0.666016 -26.5 -0.999023s-12.167 -0.5 -13.5 -0.5s-5.83301 0.166992 -13.5 0.5s-17 0.666016 -28 0.999023s-22.833 0.666016 -35.5 0.999023s-24.667 0.5 -36 0.5c-10.667 0 -16 -2.66699 -16 -8c0 -4 2.66699 -6 8 -6
c4.66699 0 10.5 -0.166992 17.5 -0.5s12.5 -1.16602 16.5 -2.49902c10 -2.66699 18 -5.83398 24 -9.50098s10.5 -9 13.5 -16s5 -16.667 6 -29s1.5 -28.5 1.5 -48.5v-170z" />
    <glyph glyph-name="H" unicode="H" horiz-adv-x="960" 
d="M782 463v95v59c0 15.333 0.166992 27.5 0.5 36.5s0.833008 17.5 1.5 25.5c1.33301 17.333 4.5 30.5 9.5 39.5s14.167 14.833 27.5 17.5c6 1.33301 10.833 2.16602 14.5 2.49902s7.16699 0.5 10.5 0.5c5.33301 0 8 2 8 6c0 5.33301 -5.33301 8 -16 8
c-7.33301 0 -16.333 -0.166992 -27 -0.5l-31 -1c-10 -0.333008 -18.833 -0.666016 -26.5 -0.999023s-12.167 -0.5 -13.5 -0.5s-5.83301 0.166992 -13.5 0.5s-17 0.666016 -28 0.999023s-22.833 0.666016 -35.5 0.999023s-24.667 0.5 -36 0.5c-10.667 0 -16 -2.66699 -16 -8
c0 -4 2.66699 -6 8 -6c4.66699 0 10.5 -0.166992 17.5 -0.5s12.5 -1.16602 16.5 -2.49902c16.667 -3.33301 27.667 -9.33301 33 -18s8.66602 -21.667 9.99902 -39c0.666992 -8 1.16699 -16.5 1.5 -25.5s0.5 -21.167 0.5 -36.5v-59v-95v-21c0 -4 -2 -6 -6 -6h-424
c-4 0 -6 2 -6 6v21v95v59c0 15.333 0.166992 27.5 0.5 36.5s0.833008 17.5 1.5 25.5c1.33301 17.333 4.5 30.5 9.5 39.5s14.167 14.833 27.5 17.5c6 1.33301 10.833 2.16602 14.5 2.49902s7.16699 0.5 10.5 0.5c5.33301 0 8 2 8 6c0 5.33301 -5.33301 8 -16 8
c-7.33301 0 -16.333 -0.166992 -27 -0.5l-31 -1c-10 -0.333008 -18.833 -0.666016 -26.5 -0.999023s-12.167 -0.5 -13.5 -0.5s-5.83301 0.166992 -13.5 0.5s-17 0.666016 -28 0.999023s-22.833 0.666016 -35.5 0.999023s-24.667 0.5 -36 0.5c-10.667 0 -16 -2.66699 -16 -8
c0 -4 2.66699 -6 8 -6c4.66699 0 10.5 -0.166992 17.5 -0.5s12.5 -1.16602 16.5 -2.49902c16.667 -3.33301 27.667 -9.33301 33 -18s8.66602 -21.667 9.99902 -39c0.666992 -8 1.16699 -16.5 1.5 -25.5s0.5 -21.167 0.5 -36.5v-59v-95v-176
c0 -48 -0.166992 -90.833 -0.5 -128.5s-1.83301 -67.167 -4.5 -88.5c-2 -14.667 -4.83301 -27 -8.5 -37s-10.5 -16 -20.5 -18c-4.66699 -1.33301 -9.66699 -2.33301 -15 -3s-10.333 -1 -15 -1c-5.33301 0 -8 -2 -8 -6c0 -5.33301 5.33301 -8 16 -8
c7.33301 0 16.333 0.166992 27 0.5l31 1c10 0.333008 18.833 0.666016 26.5 0.999023s12.167 0.5 13.5 0.5s5.83301 -0.166992 13.5 -0.5s17.334 -0.666016 29.001 -0.999023s24.5 -0.666016 38.5 -0.999023s28 -0.5 42 -0.5c10.667 0 16 2.66699 16 8c0 4 -2.66699 6 -8 6
c-4.66699 0 -11.5 0.333008 -20.5 1s-17.167 1.66699 -24.5 3c-15.333 2 -25.333 8 -30 18s-7.66699 22.333 -9 37c-2.66699 21.333 -4.16699 50.833 -4.5 88.5s-0.5 80.5 -0.5 128.5v105c0 4 2 6 6 6h424c4 0 6 -2 6 -6v-105c0 -48 -0.166992 -90.833 -0.5 -128.5
s-1.83301 -67.167 -4.5 -88.5c-2 -14.667 -4.83301 -27 -8.5 -37s-10.5 -16 -20.5 -18c-4.66699 -1.33301 -9.66699 -2.33301 -15 -3s-10.333 -1 -15 -1c-5.33301 0 -8 -2 -8 -6c0 -5.33301 5.33301 -8 16 -8c7.33301 0 16.333 0.166992 27 0.5l31 1
c10 0.333008 18.833 0.666016 26.5 0.999023s12.167 0.5 13.5 0.5s5.83301 -0.166992 13.5 -0.5s17.334 -0.666016 29.001 -0.999023s24.5 -0.666016 38.5 -0.999023s28 -0.5 42 -0.5c10.667 0 16 2.66699 16 8c0 4 -2.66699 6 -8 6c-4.66699 0 -11.5 0.333008 -20.5 1
s-17.167 1.66699 -24.5 3c-15.333 2 -25.333 8 -30 18s-7.66699 22.333 -9 37c-2.66699 21.333 -4.16699 50.833 -4.5 88.5s-0.5 80.5 -0.5 128.5v176z" />
    <glyph glyph-name="I" unicode="I" horiz-adv-x="440" 
d="M262 463l-0.000976562 95.002v59c0 15.333 0.166992 27.5 0.5 36.5s0.833008 17.5 1.5 25.5c1.33301 17.333 4.5 30.5 9.5 39.5s14.167 14.833 27.5 17.5c6 1.33301 10.833 2.16602 14.5 2.49902s7.16699 0.5 10.5 0.5c5.33301 0 8 2 8 6c0 5.33301 -5.33301 8 -16 8
c-7.33301 0 -16.333 -0.166992 -27 -0.5l-31 -1c-10 -0.333008 -18.833 -0.666016 -26.5 -0.999023s-12.167 -0.5 -13.5 -0.5s-5.83301 0.166992 -13.5 0.5s-16.5 0.666016 -26.5 0.999023s-20.667 0.666016 -32 0.999023s-21 0.5 -29 0.5c-10.667 0 -16 -2.66699 -16 -8
c0 -4 2.66699 -6 8 -6c3.33301 0 8 -0.333008 14 -1s11.667 -1.66699 17 -3c20.667 -4.66699 32 -23.334 34 -56.001c0.666992 -8 1.16699 -16.5 1.5 -25.5s0.5 -21.167 0.5 -36.5v-59v-95v-176c0 -48 -0.166992 -90.833 -0.5 -128.5s-1.83301 -67.167 -4.5 -88.5
c-2 -14.667 -4.83301 -27 -8.5 -37s-10.5 -16 -20.5 -18c-4.66699 -1.33301 -9.66699 -2.33301 -15 -3s-10.333 -1 -15 -1c-5.33301 0 -8 -2 -8 -6c0 -5.33301 5.33301 -8 16 -8c7.33301 0 16.333 0.166992 27 0.5l31 1c10 0.333008 18.833 0.666016 26.5 0.999023
s12.167 0.5 13.5 0.5s5.83301 -0.166992 13.5 -0.5s17.334 -0.666016 29.001 -0.999023s24.5 -0.666016 38.5 -0.999023s28 -0.5 42 -0.5c10.667 0 16 2.66699 16 8c0 4 -2.66699 6 -8 6c-4.66699 0 -11.5 0.333008 -20.5 1s-17.167 1.66699 -24.5 3
c-15.333 2 -25.333 8 -30 18s-7.66699 22.333 -9 37c-2.66699 21.333 -4.16699 50.833 -4.5 88.5s-0.5 80.5 -0.5 128.5v176z" />
    <glyph glyph-name="J" unicode="J" horiz-adv-x="414" 
d="M262 463l0.000976562 95v59c0 15.333 0.166992 27.5 0.5 36.5s0.833008 17.5 1.5 25.5c1.33301 17.333 4.5 30.5 9.5 39.5s14.167 14.833 27.5 17.5c6 1.33301 10.833 2.16602 14.5 2.49902s7.16699 0.5 10.5 0.5c5.33301 0 8 2 8 6c0 5.33301 -5.33301 8 -16 8
c-7.33301 0 -16.333 -0.166992 -27 -0.5l-31 -1c-10 -0.333008 -18.833 -0.666016 -26.5 -0.999023s-12.167 -0.5 -13.5 -0.5s-5.83301 0.166992 -13.5 0.5s-17 0.666016 -28 0.999023s-22.833 0.666016 -35.5 0.999023s-24.667 0.5 -36 0.5c-10.667 0 -16 -2.66699 -16 -8
c0 -4 2.66699 -6 8 -6c4.66699 0 10.5 -0.166992 17.5 -0.5s12.5 -1.16602 16.5 -2.49902c16.667 -3.33301 27.667 -9.33301 33 -18s8.66602 -21.667 9.99902 -39c0.666992 -8 1.16699 -16.5 1.5 -25.5s0.5 -21.167 0.5 -36.5v-59v-95v-289c0 -64.667 -2 -117.5 -6 -158.5
s-10 -75 -18 -102s-18 -49 -30 -66s-26 -33.833 -42 -50.5c-4.66699 -4.66699 -10.167 -9.66699 -16.5 -15s-12.5 -9.66602 -18.5 -12.999l-10.5 -7.5c-2.33301 -1.66699 -3.5 -4.16699 -3.5 -7.5c0 -4 2.33301 -6 7 -6c2 0 4.33301 0.666992 7 2
c5.33301 2.66699 11.5 6.33398 18.5 11.001l20.5 14c40.667 28 72.5 54.167 95.5 78.5s39.833 49.166 50.5 74.499c7.33301 18 13 35.833 17 53.5s7 37.667 9 60s3.16699 48 3.5 77s0.5 63.833 0.5 104.5v240z" />
    <glyph glyph-name="K" unicode="K" horiz-adv-x="752" 
d="M178 287c0 -48 -0.167969 -90.835 -0.500977 -128.502s-1.83301 -67.167 -4.5 -88.5c-2 -14.667 -4.83301 -27 -8.5 -37s-10.5 -16 -20.5 -18c-4.66699 -1.33301 -9.66699 -2.33301 -15 -3s-10.333 -1 -15 -1c-5.33301 0 -8 -2 -8 -6c0 -5.33301 5.33301 -8 16 -8
c7.33301 0 16.166 0.166992 26.499 0.5l30 1c9.66699 0.333008 18.167 0.666016 25.5 0.999023s12 0.5 14 0.5s6.83301 -0.166992 14.5 -0.5s16.834 -0.666016 27.501 -0.999023s22.5 -0.666016 35.5 -0.999023s25.5 -0.5 37.5 -0.5c10.667 0 16 2.66699 16 8
c0 4 -2.66699 6 -8 6c-4.66699 0 -10.5 0.333008 -17.5 1s-14.167 1.66699 -21.5 3c-15.333 2 -25.333 8 -30 18s-7.66699 22.333 -9 37c-2.66699 21.333 -4.16699 50.833 -4.5 88.5s-0.5 80.5 -0.5 128.5v98h5c8 -10 20 -24 36 -42l54.5 -60l63.5 -68.5l62.5 -67l53.5 -55
c16 -15.667 27.667 -26.5 35 -32.5l29.5 -23.5c9 -7 18 -13 27 -18s18.667 -9.16699 29 -12.5s22.166 -5.66602 35.499 -6.99902c11.333 -1.33301 22 -2 32 -2h37h51c8.66699 0 14.5 0.666992 17.5 2s4.5 3.33301 4.5 6c0 4 -4.33301 6 -13 6
c-3.33301 0 -11.166 0.833008 -23.499 2.5s-25.166 5.16699 -38.499 10.5c-12 4.66699 -22.5 9.66699 -31.5 15s-18.833 12 -29.5 20s-22.834 18.333 -36.501 31l-51.5 48c-6.66699 6 -17.5 16.667 -32.5 32l-51 51.5l-59.5 60.5l-58 60.5l-47.5 49.5
c-13.667 14 -22.5 23.333 -26.5 28c3.33301 4 10.5 11.667 21.5 23l39 39.5l48 47.5l48 47l40 39l23.5 23l30 29c8.66699 8.66699 17.167 16.5 25.5 23.5s16.666 13.167 24.999 18.5s17.5 10.333 27.5 15c20.667 9.33301 39.334 14 56.001 14c6.66699 0 10 2.33301 10 7
s-5 7 -15 7c-6 0 -14.167 -0.166992 -24.5 -0.5l-31 -1c-10.333 -0.333008 -19.333 -0.666016 -27 -0.999023s-12.167 -0.5 -13.5 -0.5c-12 0 -25 0.5 -39 1.5s-26 1.5 -36 1.5c-8 0 -12 -2.33301 -12 -7c0 -2.66699 3 -5.33398 9 -8.00098
c8.66699 -3.33301 13 -10.333 13 -21c0 -8.66699 -5.5 -19.167 -16.5 -31.5l-37.5 -40.5l-28.5 -30.5l-44 -45.5l-51.5 -52.5l-50 -51l-39.5 -40.5c-11 -11.333 -17.833 -18.666 -20.5 -21.999h-4v60v95v59c0 15.333 0.166992 27.5 0.5 36.5s0.833008 17.5 1.5 25.5
c1.33301 17.333 4.5 30.5 9.5 39.5s14.167 14.833 27.5 17.5c6 1.33301 10.833 2.16602 14.5 2.49902s7.16699 0.5 10.5 0.5c5.33301 0 8 2 8 6c0 5.33301 -5.33301 8 -16 8c-7.33301 0 -16.166 -0.166992 -26.499 -0.5l-30 -1
c-9.66699 -0.333008 -18.334 -0.666016 -26.001 -0.999023s-12.5 -0.5 -14.5 -0.5c-1.33301 0 -5.83301 0.166992 -13.5 0.5s-16.667 0.666016 -27 0.999023s-21.666 0.666016 -33.999 0.999023s-24.166 0.5 -35.499 0.5c-10.667 0 -16 -2.66699 -16 -8
c0 -4 2.66699 -6 8 -6c4.66699 0 10.5 -0.166992 17.5 -0.5s12.5 -1.16602 16.5 -2.49902c16.667 -3.33301 27.667 -9.33301 33 -18s8.66602 -21.667 9.99902 -39c0.666992 -8 1.16699 -16.5 1.5 -25.5s0.5 -21.167 0.5 -36.5v-59v-95v-176z" />
    <glyph glyph-name="L" unicode="L" horiz-adv-x="592" 
d="M262 463l0.00292969 95.0029v59c0 15.333 0.166992 27.5 0.5 36.5s0.833008 17.5 1.5 25.5c1.33301 17.333 4.5 30.5 9.5 39.5s14.833 14.833 29.5 17.5c6 1.33301 12.167 2.16602 18.5 2.49902s11.166 0.5 14.499 0.5c5.33301 0 8 2 8 6c0 5.33301 -5.33301 8 -16 8
c-7.33301 0 -16.833 -0.166992 -28.5 -0.5l-34.5 -1c-11.333 -0.333008 -21.333 -0.666016 -30 -0.999023s-13.667 -0.5 -15 -0.5s-5.83301 0.166992 -13.5 0.5s-17 0.666016 -28 0.999023s-22.833 0.666016 -35.5 0.999023s-24.667 0.5 -36 0.5
c-10.667 0 -16 -2.66699 -16 -8c0 -4 2.66699 -6 8 -6c4.66699 0 10.5 -0.166992 17.5 -0.5s12.5 -1.16602 16.5 -2.49902c16.667 -3.33301 27.667 -9.33301 33 -18s8.66602 -21.667 9.99902 -39c0.666992 -8 1.16699 -16.5 1.5 -25.5s0.5 -21.167 0.5 -36.5v-59v-95v-176
c0 -48 -0.166992 -90.833 -0.5 -128.5s-1.83301 -67.167 -4.5 -88.5c-2 -14.667 -4.83301 -27 -8.5 -37s-10.5 -16 -20.5 -18c-4.66699 -1.33301 -9.66699 -2.33301 -15 -3s-10.333 -1 -15 -1c-5.33301 0 -8 -2 -8 -6c0 -5.33301 5.33301 -8 16 -8
c7.33301 0 16.166 0.166992 26.499 0.5s20.5 0.833008 30.5 1.5c10 0 18.833 0.166992 26.5 0.5s12.5 0.5 14.5 0.5c14.667 0 30 -0.166992 46 -0.5s34.667 -1.16602 56 -2.49902c21.333 -0.666992 45.333 -1.33398 72 -2.00098s58 -1 94 -1
c13.333 0 23.833 0.333008 31.5 1s13.5 2 17.5 4s6.83301 4.66699 8.5 8s3.5 8 5.5 14c2 7.33301 3.83301 16.166 5.5 26.499l5 30.5c1.66699 10 2.83398 19 3.50098 27s1 13.333 1 16c0 10 -2 15 -6 15c-4.66699 0 -7.66699 -4.33301 -9 -13
c-1.33301 -9.33301 -4.33301 -19.666 -9 -30.999s-10.334 -21 -17.001 -29c-12 -14.667 -28.5 -23.334 -49.5 -26.001s-44.833 -4 -71.5 -4c-19.333 0 -35.833 0.5 -49.5 1.5s-25 2.33301 -34 4s-16.333 4 -22 7s-10.5 6.5 -14.5 10.5
c-9.33301 8.66699 -15.333 30.667 -18 66s-4 89.666 -4 162.999v178z" />
    <glyph glyph-name="M" unicode="M" horiz-adv-x="1050" 
d="M855 740c-2 18 -5.99512 26.9971 -11.9951 26.9971c-5.33301 0 -10.333 -5.33301 -15 -16l-294 -628l-306 629c-4.66699 10 -9.66699 15 -15 15c-6 0 -9.66699 -6 -11 -18l-72 -652c-2 -19.333 -5 -37.166 -9 -53.499s-14.333 -26.166 -31 -29.499
c-7.33301 -1.33301 -13.166 -2.16602 -17.499 -2.49902s-8.5 -0.5 -12.5 -0.5c-6.66699 0 -10 -1.66699 -10 -5c0 -6 5.66699 -9 17 -9c6.66699 0 14.334 0.166992 23.001 0.5l25.5 1c8.33301 0.333008 15.833 0.666016 22.5 0.999023s11 0.5 13 0.5
s6.16699 -0.166992 12.5 -0.5s14 -0.666016 23 -0.999023s18.5 -0.666016 28.5 -0.999023s19.667 -0.5 29 -0.5c12 0 18 3 18 9c0 3.33301 -2.66699 5 -8 5c-3.33301 0 -8.33301 0.333008 -15 1s-14.334 2 -23.001 4c-7.33301 1.33301 -13.5 5 -18.5 11s-7.5 12.667 -7.5 20
v26c0 8.66699 0.333008 17 1 25l40 464h4l13 -29.5l24 -52.5l29.5 -64l29.5 -63.5l24 -50.5l12 -25l17 -33.5l34 -67.5l37.5 -75.5c12.333 -25 21.833 -43.5 28.5 -55.5c9.33301 -18 16 -30.167 20 -36.5s7.66699 -9.5 11 -9.5c4.66699 0 8.66699 3.33301 12 10l21 43
l245 520h3l48 -516c1.33301 -9.33301 1.66602 -17.5 0.999023 -24.5s-2.33398 -10.833 -5.00098 -11.5c-4.66699 -0.666992 -7 -3 -7 -7c0 -2.66699 1.83301 -4.66699 5.5 -6s11.167 -2.66602 22.5 -3.99902c9.33301 -0.666992 22.166 -1.33398 38.499 -2.00098l50.5 -2
c17.333 -0.666992 33.333 -1.16699 48 -1.5s24.667 -0.5 30 -0.5c6 0 11 0.666992 15 2s6 3.66602 6 6.99902s-2.66699 5 -8 5s-13.833 0.333008 -25.5 1s-24.834 3.33398 -39.501 8.00098c-10.667 3.33301 -19.334 9.16602 -26.001 17.499s-11.834 17.5 -15.501 27.5
s-6.5 20.333 -8.5 31s-3.33301 20.667 -4 30z" />
    <glyph glyph-name="N" unicode="N" horiz-adv-x="947" 
d="M192 612l38.001 -42.4971l61 -67.5l76.5 -84.5l85.5 -92.5l84 -89l82 -85.5l64.5 -66l30.5 -30.5l32.5 -32.5c8.33301 -8.33301 15.166 -14.833 20.499 -19.5s9.5 -7.83398 12.5 -9.50098s5.5 -2.5 7.5 -2.5s3.5 0.666992 4.5 2s1.83301 4.33301 2.5 9
s1.16699 11.667 1.5 21s0.5 22.333 0.5 39l2 586c0 30 2 51.5 6 64.5s14.333 21.167 31 24.5c6 1.33301 10.833 2.16602 14.5 2.49902s6.83398 0.5 9.50098 0.5c7.33301 0 11 2.33301 11 7s-6 7 -18 7c-20.667 0 -38.667 -0.5 -54 -1.5s-25.666 -1.5 -30.999 -1.5
c-2.66699 0 -7.5 0.166992 -14.5 0.5s-15.333 0.666016 -25 0.999023s-20 0.666016 -31 0.999023s-22.167 0.5 -33.5 0.5c-13.333 0 -20 -2.33301 -20 -7s2.66699 -7 8 -7c4 0 10.833 -0.333008 20.5 -1s19.167 -2 28.5 -4c15.333 -4 25.5 -12.667 30.5 -26
s7.83301 -36.333 8.5 -69l11 -508c-8 8 -20.333 21.167 -37 39.5l-58 63.5l-70.5 77l-74.5 81l-112.5 121l-98.5 106l-72.5 78.5c-19 21 -30.5 33.5 -34.5 37.5c-5.33301 5.33301 -11.5 12 -18.5 20s-12.5 12 -16.5 12s-6.83301 -3.5 -8.5 -10.5s-2.5 -20.167 -2.5 -39.5
l-1 -573c0 -45.333 -1.83301 -77 -5.5 -95s-11.834 -28.667 -24.501 -32c-7.33301 -2.66699 -15 -4.33398 -23 -5.00098s-14 -1 -18 -1c-5.33301 0 -8 -2 -8 -6c0 -5.33301 5.33301 -8 16 -8c22.667 0 43.167 0.5 61.5 1.5s29.833 1.5 34.5 1.5s16.334 -0.5 35.001 -1.5
s42.334 -1.5 71.001 -1.5c12 0 18 2.66699 18 8c0 4 -2.66699 6 -8 6c-4.66699 0 -11.834 0.333008 -21.501 1s-19.167 2.33398 -28.5 5.00098c-6.66699 2 -12.334 5.33301 -17.001 10s-8.5 11.5 -11.5 20.5s-5.33301 20.333 -7 34s-2.83398 30.834 -3.50098 51.501z" />
    <glyph glyph-name="O" unicode="O" horiz-adv-x="915" 
d="M64 376c0 -45.333 7.33203 -91.165 21.999 -137.498s37.667 -88.5 69 -126.5s71.5 -69 120.5 -93s107.833 -36 176.5 -36c60 0 114.667 10.833 164 32.5s91.333 51 126 88s61.5 80.333 80.5 130s28.5 102.5 28.5 158.5c0 58 -10 110.167 -30 156.5
s-47.5 85.666 -82.5 117.999s-76.5 57.166 -124.5 74.499s-100 26 -156 26c-46 0 -87.667 -5.83301 -125 -17.5s-70.666 -27.5 -99.999 -47.5s-54.5 -43.167 -75.5 -69.5s-38.5 -54 -52.5 -83s-24.333 -58.5 -31 -88.5s-10 -58.333 -10 -85zM158.999 404.001
c0 54.667 7.33301 102.5 22 143.5s35 75.333 61 103s56.833 48.334 92.5 62.001s74.5 20.5 116.5 20.5c39.333 0 77.333 -8 114 -24s69 -39.5 97 -70.5s50.5 -69.5 67.5 -115.5s25.5 -99 25.5 -159c0 -72.667 -10.167 -131.5 -30.5 -176.5s-45 -79.833 -74 -104.5
s-59.167 -41.167 -90.5 -49.5s-58.333 -12.5 -81 -12.5c-45.333 0 -87.333 9 -126 27s-72.5 43.667 -101.5 77s-51.667 73.666 -68 120.999s-24.5 100 -24.5 158z" />
    <glyph glyph-name="P" unicode="P" horiz-adv-x="642" 
d="M178 287c0 -48 -0.167969 -90.8311 -0.500977 -128.498s-1.83301 -67.167 -4.5 -88.5c-2 -14.667 -4.83301 -27 -8.5 -37s-10.5 -16 -20.5 -18c-4.66699 -1.33301 -9.66699 -2.33301 -15 -3s-10.333 -1 -15 -1c-5.33301 0 -8 -2 -8 -6c0 -5.33301 5.33301 -8 16 -8
c7.33301 0 16.333 0.166992 27 0.5l31 1c10 0.333008 18.667 0.666016 26 0.999023s11.333 0.5 12 0.5c1.33301 0 5.83301 -0.166992 13.5 -0.5s17.334 -0.666016 29.001 -0.999023s24.5 -0.666016 38.5 -0.999023s28 -0.5 42 -0.5c10.667 0 16 2.66699 16 8
c0 4 -2.66699 6 -8 6c-4.66699 0 -11.5 0.333008 -20.5 1s-17.167 1.66699 -24.5 3c-15.333 2 -25.333 8 -30 18s-7.66699 22.333 -9 37c-2.66699 21.333 -4.16699 50.833 -4.5 88.5s-0.5 80.5 -0.5 128.5v411c0 10.667 2.66699 17 8 19c4.66699 2 10.834 3.5 18.501 4.5
s15.834 1.5 24.501 1.5h24c10 0 21.167 -1.5 33.5 -4.5s25.333 -8 39 -15s27.167 -17.167 40.5 -30.5s23.666 -27.333 30.999 -42s12.833 -29 16.5 -43s6 -27 7 -39s1.5 -22 1.5 -30c0 -23.333 -4.5 -44.833 -13.5 -64.5s-21.167 -36.834 -36.5 -51.501
s-33.666 -26.167 -54.999 -34.5s-44 -12.5 -68 -12.5c-10.667 0 -17.834 -0.5 -21.501 -1.5s-5.5 -3.5 -5.5 -7.5c0 -2.66699 1.16699 -4.5 3.5 -5.5s4.83301 -1.5 7.5 -1.5c2.66699 -0.666992 6 -1 10 -1h11c35.333 0 68 5.66699 98 17s56 27.5 78 48.5
s39.167 46.167 51.5 75.5s18.5 61.666 18.5 96.999c0 26.667 -5.5 50.5 -16.5 71.5s-22.167 36.833 -33.5 47.5c-4 4 -10 9.16699 -18 15.5s-19.333 12.5 -34 18.5s-32.834 11.333 -54.501 16s-48.167 7 -79.5 7c-23.333 0 -47.333 -0.5 -72 -1.5s-42.667 -1.5 -54 -1.5
c-2 0 -6.83301 0.166992 -14.5 0.5s-17 0.666016 -28 0.999023s-22.667 0.666016 -35 0.999023s-24.166 0.5 -35.499 0.5c-10.667 0 -16 -2.66699 -16 -8c0 -4 2.66699 -6 8 -6c4.66699 0 10.5 -0.166992 17.5 -0.5s12.5 -1.16602 16.5 -2.49902
c16.667 -3.33301 27.667 -9.33301 33 -18s8.66602 -21.667 9.99902 -39c0.666992 -8 1.16699 -16.5 1.5 -25.5s0.5 -21.167 0.5 -36.5v-59v-95v-176z" />
    <glyph glyph-name="Q" unicode="Q" horiz-adv-x="920" 
d="M780 -76c81.333 -45.333 155.167 -78.999 221.5 -100.999s129.833 -33 190.5 -33c36.667 0 71.167 2.33301 103.5 7s62 10.5 89 17.5s51 14.5 72 22.5s38.5 15.333 52.5 22c5.33301 2.66699 8 6 8 10s-2 6 -6 6c-1.33301 0 -3.16602 -0.333008 -5.49902 -1
s-5.16602 -1.66699 -8.49902 -3c-34.667 -14 -69.834 -24 -105.501 -30s-66.167 -9 -91.5 -9c-12.667 0 -31.334 0.833008 -56.001 2.5s-55 6.33398 -91 14.001s-77 19.5 -123 35.5s-96.333 38 -151 66l-205 106c16.667 10.667 35.167 26 55.5 46s39.5 44.167 57.5 72.5
s33.167 60.666 45.5 96.999s18.5 76.5 18.5 120.5c0 58 -10 110.167 -30 156.5s-47.5 85.666 -82.5 117.999s-76.5 57.166 -124.5 74.499s-100 26 -156 26c-46 0 -87.667 -5.83301 -125 -17.5s-70.666 -27.5 -99.999 -47.5s-54.5 -43.167 -75.5 -69.5s-38.5 -54 -52.5 -83
s-24.333 -58.5 -31 -88.5s-10 -58.333 -10 -85c0 -45.333 7.33301 -91.166 22 -137.499s37.834 -88.5 69.501 -126.5s72.167 -69 121.5 -93s108.666 -36 177.999 -36c13.333 0 27.333 0.833008 42 2.5s29 4 43 7s27.167 6.66699 39.5 11s23.166 8.83301 32.499 13.5z
M159.001 404.001c0 54.667 7.33301 102.5 22 143.5s35 75.333 61 103s56.833 48.334 92.5 62.001s74.5 20.5 116.5 20.5c39.333 0 77.333 -8 114 -24s69 -39.5 97 -70.5s50.5 -69.5 67.5 -115.5s25.5 -99 25.5 -159c0 -72.667 -10.167 -131.5 -30.5 -176.5
s-45 -79.833 -74 -104.5s-59.167 -41.167 -90.5 -49.5s-58.333 -12.5 -81 -12.5c-45.333 0 -87.333 9 -126 27s-72.5 43.667 -101.5 77s-51.667 73.666 -68 120.999s-24.5 100 -24.5 158z" />
    <glyph glyph-name="R" unicode="R" horiz-adv-x="754" 
d="M178 287c0 -48 -0.163086 -90.833 -0.496094 -128.5s-1.83301 -67.167 -4.5 -88.5c-2 -14.667 -4.83301 -27 -8.5 -37s-10.5 -16 -20.5 -18c-4.66699 -1.33301 -9.66699 -2.33301 -15 -3s-10.333 -1 -15 -1c-5.33301 0 -8 -2 -8 -6c0 -5.33301 5.33301 -8 16 -8
c7.33301 0 16.333 0.166992 27 0.5l31 1c10 0.333008 18.5 0.666016 25.5 0.999023l10.5 0.5c1.33301 0 5.83301 -0.166992 13.5 -0.5s17.334 -0.666016 29.001 -0.999023s24.5 -0.666016 38.5 -0.999023s28 -0.5 42 -0.5c10.667 0 16 2.66699 16 8c0 4 -2.66699 6 -8 6
c-4.66699 0 -11.5 0.333008 -20.5 1s-17.167 1.66699 -24.5 3c-15.333 2 -25.333 8 -30 18s-7.66699 22.333 -9 37c-2.66699 21.333 -4.16699 50.833 -4.5 88.5s-0.5 80.5 -0.5 128.5v24c0 5.33301 2.33301 8 7 8l123 -2c4.66699 0 9 -2 13 -6
c4.66699 -6.66699 11.167 -15.5 19.5 -26.5l27 -36.5l30.5 -42l32 -43c28.667 -38 53 -69.167 73 -93.5s40.667 -42.166 62 -53.499c12.667 -7.33301 26.667 -12.333 42 -15s37 -4 65 -4h71c9.33301 0 15.666 0.5 18.999 1.5s5 3.16699 5 6.5c0 4 -3 6 -9 6
c-3.33301 0 -8.33301 0.166992 -15 0.5s-14.667 1.16602 -24 2.49902c-12.667 2 -29.334 7.33301 -50.001 16s-44.667 27.334 -72 56.001c-29.333 31.333 -61 68.666 -95 111.999l-113 144c44.667 41.333 76 80.833 94 118.5s27 75.167 27 112.5
c0 17.333 -2.5 33.333 -7.5 48s-11 27.667 -18 39s-14.5 21.166 -22.5 29.499s-15 14.833 -21 19.5c-26.667 19.333 -55.834 31.5 -87.501 36.5s-63.5 7.5 -95.5 7.5c-8 0 -18 -0.166992 -30 -0.5l-36.5 -1c-12.333 -0.333008 -23.333 -0.666016 -33 -0.999023
s-15.834 -0.5 -18.501 -0.5c-1.33301 0 -5.83301 0.166992 -13.5 0.5s-17 0.666016 -28 0.999023s-22.833 0.666016 -35.5 0.999023s-24.667 0.5 -36 0.5c-10.667 0 -16 -2.66699 -16 -8c0 -4 2.66699 -6 8 -6c4.66699 0 10.5 -0.166992 17.5 -0.5
s12.5 -1.16602 16.5 -2.49902c16.667 -3.33301 27.667 -9.33301 33 -18s8.66602 -21.667 9.99902 -39c0.666992 -8 1.16699 -16.5 1.5 -25.5s0.5 -21.167 0.5 -36.5v-59v-95v-176zM258.004 703c0 6 2.66504 10.001 7.99805 12.001c5.33301 1.33301 14 2.66602 26 3.99902
s25.667 2 41 2c54 0 96.333 -17.667 127 -53s46 -84.333 46 -147c0 -38 -5.83301 -70.167 -17.5 -96.5s-26.167 -45.5 -43.5 -57.5c-11.333 -8 -23.666 -13.167 -36.999 -15.5s-26 -3.5 -38 -3.5c-22 0 -43.167 1.5 -63.5 4.5s-34.166 6.83301 -41.499 11.5
c-4.66699 2.66699 -7 6.66699 -7 12v327z" />
    <glyph glyph-name="S" unicode="S" horiz-adv-x="570" 
d="M248 -17c27.333 0 53.9961 3.16504 79.9961 9.49805s49.667 17.166 71 32.499c17.333 12 31.5 25.5 42.5 40.5s19.667 30.167 26 45.5s10.666 30 12.999 44s3.5 26 3.5 36c0 20 -2 39.167 -6 57.5s-11.5 36.666 -22.5 54.999s-26 37.5 -45 57.5s-43.167 41.667 -72.5 65
l-28 22c-24 18.667 -43.833 35.334 -59.5 50.001s-28.167 28.334 -37.5 41.001s-15.833 25.167 -19.5 37.5s-5.5 25.5 -5.5 39.5c0 36.667 11.833 65.167 35.5 85.5s52.834 30.5 87.501 30.5c22.667 0 41.667 -2.16699 57 -6.5s27.833 -9.5 37.5 -15.5
s16.834 -12 21.501 -18s7.66699 -10.333 9 -13c3.33301 -5.33301 6.16602 -13.5 8.49902 -24.5s3.83301 -19.5 4.5 -25.5c0.666992 -4 1.33398 -7.16699 2.00098 -9.5s2.66699 -3.5 6 -3.5c4.66699 0 7 7.66699 7 23c0 34 0.666992 59.5 2 76.5s2 26.833 2 29.5
c0 4.66699 -3.33301 7 -10 7c-4 0 -8.5 0.333008 -13.5 1s-12.167 2 -21.5 4c-12.667 3.33301 -26.5 5.83301 -41.5 7.5s-32.167 2.5 -51.5 2.5c-32 0 -60.667 -4.33301 -86 -13s-47 -21 -65 -37s-31.833 -35 -41.5 -57s-14.5 -46.333 -14.5 -73
c0 -17.333 1.83301 -34.166 5.5 -50.499s10.334 -33.333 20.001 -51s22.834 -35.834 39.501 -54.501s38.334 -39 65.001 -61l45 -37c21.333 -18 39.333 -34.167 54 -48.5s26.5 -28.333 35.5 -42s15.5 -27.667 19.5 -42s6 -30.166 6 -47.499c0 -16 -3 -32 -9 -48
s-14.833 -30.167 -26.5 -42.5s-26.5 -22.5 -44.5 -30.5s-39 -12 -63 -12c-16.667 0 -33 1.83301 -49 5.5s-30.833 9.5 -44.5 17.5s-25.167 18.5 -34.5 31.5s-16 28.833 -20 47.5c-1.33301 7.33301 -2.16602 14.166 -2.49902 20.499s-0.5 11.833 -0.5 16.5
c0 7.33301 -2.33301 11 -7 11s-7.33398 -5.33301 -8.00098 -16c-0.666992 -8 -1.66699 -21.333 -3 -40s-2 -40.667 -2 -66c0 -13.333 0.666992 -22.166 2 -26.499s5.66602 -8.16602 12.999 -11.499c20.667 -10 42.334 -17 65.001 -21s45.667 -6 69 -6z" />
    <glyph glyph-name="T" unicode="T" horiz-adv-x="691" 
d="M391 710l126 -1.99512c24 -0.666992 43.833 -2.5 59.5 -5.5s28 -6.83301 37 -11.5s15.5 -10.334 19.5 -17.001s6.33301 -13.667 7 -21l1 -11c0.666992 -7.33301 1.5 -12 2.5 -14s2.83301 -3 5.5 -3c4.66699 0 7 4.33301 7 13c0 2.66699 0.166992 8.5 0.5 17.5
s0.666016 19.167 0.999023 30.5l1 34c0.333008 11.333 0.5 20.666 0.5 27.999c0 3.33301 -0.166992 6.16602 -0.5 8.49902s-1.83301 3.5 -4.5 3.5c-2 0 -5.33301 -0.5 -10 -1.5s-10.667 -2.16699 -18 -3.5c-8 -1.33301 -17.833 -2.5 -29.5 -3.5s-25.5 -1.5 -41.5 -1.5h-375
c-6 0 -17 0.5 -33 1.5s-31.333 2.16699 -46 3.5c-13.333 1.33301 -23.166 3.66602 -29.499 6.99902s-11.166 5 -14.499 5c-2 0 -3.83301 -2.33301 -5.5 -7s-3.16699 -8.66699 -4.5 -12c-0.666992 -2 -2.16699 -8 -4.5 -18l-7.5 -33c-2.66699 -12 -5 -23.167 -7 -33.5
s-3 -16.833 -3 -19.5c0 -6 1.66699 -9 5 -9c4 0 7.33301 3.33301 10 10c1.33301 3.33301 3.16602 7.16602 5.49902 11.499s6.16602 10.833 11.499 19.5c4 6 8.66699 11 14 15s12 7.16699 20 9.5s17.5 4.16602 28.5 5.49902s24.167 2 39.5 2l148 2v-423
c0 -48 -0.166992 -90.833 -0.5 -128.5s-1.83301 -67.167 -4.5 -88.5c-2 -14.667 -4.83301 -27 -8.5 -37s-10.5 -16 -20.5 -18c-4.66699 -1.33301 -9.66699 -2.33301 -15 -3s-10.333 -1 -15 -1c-5.33301 0 -8 -2 -8 -6c0 -5.33301 5.33301 -8 16 -8
c7.33301 0 16.333 0.166992 27 0.5l31 1c10 0.333008 18.833 0.666016 26.5 0.999023s12.167 0.5 13.5 0.5s5.83301 -0.166992 13.5 -0.5s17.334 -0.666016 29.001 -0.999023s24.5 -0.666016 38.5 -0.999023s28 -0.5 42 -0.5c10.667 0 16 2.66699 16 8c0 4 -2.66699 6 -8 6
c-4.66699 0 -11.5 0.333008 -20.5 1s-17.167 1.66699 -24.5 3c-15.333 2 -25.333 8 -30 18s-7.66699 22.333 -9 37c-2.66699 21.333 -4.16699 50.833 -4.5 88.5s-0.5 80.5 -0.5 128.5v423z" />
    <glyph glyph-name="U" unicode="U" horiz-adv-x="830" 
d="M120 317c0 -36.667 2.16992 -68.6621 6.50293 -95.9951s10.5 -51.5 18.5 -72.5s17.333 -39 28 -54s22 -28.5 34 -40.5c18 -16.667 37.167 -29.834 57.5 -39.501s40.166 -16.834 59.499 -21.501s36.833 -7.5 52.5 -8.5s27.834 -1.5 36.501 -1.5
c14.667 0 30.334 0.833008 47.001 2.5s33.667 5.16699 51 10.5s35.166 12.833 53.499 22.5s36.5 22.5 54.5 38.5c20 18 36 38.5 48 61.5s21.333 47.667 28 74s11 53.333 13 81s3 55.167 3 82.5v107v95v59c0 15.333 0.166992 27.5 0.5 36.5s0.833008 17.5 1.5 25.5
c1.33301 17.333 4.5 30.333 9.5 39s14.167 14.667 27.5 18c6 1.33301 10.833 2.16602 14.5 2.49902s7.16699 0.5 10.5 0.5c5.33301 0 8 2 8 6c0 5.33301 -5.33301 8 -16 8c-7.33301 0 -15.5 -0.166992 -24.5 -0.5l-26 -1
c-8.33301 -0.333008 -15.5 -0.666016 -21.5 -0.999023s-10 -0.5 -12 -0.5c-1.33301 0 -5.5 0.166992 -12.5 0.5s-15.5 0.666016 -25.5 0.999023s-21 0.666016 -33 0.999023s-23.667 0.5 -35 0.5c-10.667 0 -16 -2.66699 -16 -8c0 -4 2.66699 -6 8 -6
c4.66699 0 10.5 -0.166992 17.5 -0.5s12.5 -1.16602 16.5 -2.49902c16.667 -3.33301 27.667 -9.33301 33 -18s8.66602 -21.667 9.99902 -39c0.666992 -8 1.16699 -16.5 1.5 -25.5s0.5 -21.167 0.5 -36.5v-59v-95v-125c0 -52 -3.83301 -98.667 -11.5 -140
s-23.167 -76.333 -46.5 -105c-18 -21.333 -41 -38.666 -69 -51.999s-57.333 -20 -88 -20c-28.667 0 -54.834 3.33301 -78.501 10s-47.834 21.667 -72.501 45c-10.667 10 -20.667 21.833 -30 35.5s-17.333 30.167 -24 49.5s-11.834 42.166 -15.501 68.499
s-5.5 57.5 -5.5 93.5v140v95v59c0 15.333 0.166992 27.5 0.5 36.5s0.833008 17.5 1.5 25.5c1.33301 17.333 4.5 30.666 9.5 39.999s14.167 15 27.5 17c6 1.33301 10.833 2.16602 14.5 2.49902s7.16699 0.5 10.5 0.5c5.33301 0 8 2 8 6c0 5.33301 -5.33301 8 -16 8
c-7.33301 0 -16.166 -0.166992 -26.499 -0.5l-30.5 -1c-10 -0.333008 -19 -0.666016 -27 -0.999023s-13 -0.5 -15 -0.5s-7.16699 0.166992 -15.5 0.5s-18 0.666016 -29 0.999023s-22.667 0.666016 -35 0.999023s-24.166 0.5 -35.499 0.5c-10.667 0 -16 -2.66699 -16 -8
c0 -4 2.66699 -6 8 -6c4.66699 0 10.5 -0.166992 17.5 -0.5s12.5 -1.16602 16.5 -2.49902c16.667 -3.33301 27.667 -9.33301 33 -18s8.66602 -21.667 9.99902 -39c0.666992 -8 1.16699 -16.5 1.5 -25.5s0.5 -21.167 0.5 -36.5v-59v-95v-146z" />
    <glyph glyph-name="V" unicode="V" horiz-adv-x="742" 
d="M203 631l-18.9971 51.002c-5.33301 14.667 -8 25.334 -8 32.001c0 3.33301 0.833008 6.83301 2.5 10.5s5.16699 6.83398 10.5 9.50098c4.66699 2 10.834 3.33301 18.501 4s14.167 1 19.5 1c6.66699 0 10 2.33301 10 7s-9 7 -27 7c-19.333 0 -38.333 -0.5 -57 -1.5
s-30.667 -1.5 -36 -1.5c-3.33301 0 -9 0.166992 -17 0.5s-17.333 0.666016 -28 0.999023s-22.334 0.666016 -35.001 0.999023s-25 0.5 -37 0.5c-17.333 0 -26 -2.33301 -26 -7s2.66699 -7 8 -7c3.33301 0 8.66602 -0.166992 15.999 -0.5s14.666 -1.5 21.999 -3.5
c8.66699 -2.66699 16.334 -5.5 23.001 -8.5s12.667 -7.33301 18 -13s10.5 -12.834 15.5 -21.501s10.167 -20 15.5 -34l245 -613c9.33301 -24 16.166 -40.333 20.499 -49s9.5 -13 15.5 -13c4.66699 0 9.33398 5.16699 14.001 15.5l28 60.5c11.333 24.667 28 63 50 115l79 188
l37.5 90l33.5 81l26 63c7.33301 17.333 12.333 29.666 15 36.999c6.66699 16.667 12.667 30.667 18 42s10.166 20.5 14.499 27.5s8.33301 12.333 12 16s7.16699 6.5 10.5 8.5c9.33301 6 18.833 9.5 28.5 10.5s16.167 1.5 19.5 1.5c8 0 12 2.33301 12 7s-5.66699 7 -17 7
c-7.33301 0 -15.166 -0.166992 -23.499 -0.5l-24 -1c-7.66699 -0.333008 -14.334 -0.666016 -20.001 -0.999023s-9.16699 -0.5 -10.5 -0.5c-6 0 -18.833 0.5 -38.5 1.5s-39.5 1.5 -59.5 1.5c-14.667 0 -22 -2.66699 -22 -8c0 -4 3.66699 -6 11 -6
c5.33301 0 11.5 -0.166992 18.5 -0.5s13.5 -1.5 19.5 -3.5c5.33301 -2.66699 8.83301 -6.16699 10.5 -10.5s2.5 -8.5 2.5 -12.5c0 -4.66699 -0.833008 -10.334 -2.5 -17.001s-3.83398 -13.667 -6.50098 -21l-19.5 -57l-32.5 -89.5l-41.5 -108l-44.5 -113l-42 -104.5l-34 -83
z" />
    <glyph glyph-name="W" unicode="W" horiz-adv-x="1100" 
d="M599 702c-6 17.333 -10.8281 29.502 -14.4951 36.502s-7.16699 10.5 -10.5 10.5s-6.5 -2.5 -9.5 -7.5s-8.16699 -17.833 -15.5 -38.5l-212 -570h-2c-2.66699 8.66699 -7.33398 25.167 -14.001 49.5l-24 85l-29 103l-29 104l-24 88l-14 54.5l-13.5 57.5
c-3.66699 16.333 -5.5 27.833 -5.5 34.5s1.33301 12 4 16s5.66699 6.66699 9 8c6 3.33301 13 5.16602 21 5.49902s14 0.5 18 0.5c6.66699 0 10 2.33301 10 7c0 2 -1.16699 3.66699 -3.5 5s-7.16602 2 -14.499 2c-25.333 0 -47.666 -0.5 -66.999 -1.5s-31.333 -1.5 -36 -1.5
c-2.66699 0 -7.83398 0.166992 -15.501 0.5s-17 0.666016 -28 0.999023s-23 0.666016 -36 0.999023s-25.833 0.5 -38.5 0.5c-10.667 0 -16 -2.33301 -16 -7s3 -7 9 -7c3.33301 0 10 -0.333008 20 -1s18.333 -2.33398 25 -5.00098c12.667 -5.33301 23 -13 31 -23
s16 -28.333 24 -55l178 -593c4.66699 -17.333 8.66699 -31.166 12 -41.499s6.33301 -18.166 9 -23.499s5 -9 7 -11s4.33301 -3 7 -3c6 0 11 3.5 15 10.5s10 21.167 18 42.5l25.5 66.5l36.5 97.5l42.5 112.5l42.5 112.5l36.5 98l25.5 68h2l196 -556
c7.33301 -19.333 12.833 -32.833 16.5 -40.5s8.16699 -11.5 13.5 -11.5c2.66699 0 5.16699 1 7.5 3s5 6 8 12s6.5 14.667 10.5 26l16 45c6.66699 18.667 14.667 42.5 24 71.5l31 94.5l35 106.5l35.5 108.5l32.5 98.5l26 77.5c9.33301 28 18.666 51.667 27.999 71
s21.666 31.666 36.999 36.999c5.33301 2 11.833 3.33301 19.5 4s12.5 1 14.5 1c6 0 9 2.66699 9 8c0 4 -4.66699 6 -14 6c-8 0 -16.333 -0.166992 -25 -0.5s-16.834 -0.666016 -24.501 -0.999023s-14.334 -0.666016 -20.001 -0.999023s-9.5 -0.5 -11.5 -0.5
c-4.66699 0 -16.5 0.5 -35.5 1.5s-41.167 1.5 -66.5 1.5c-11.333 0 -17 -2.33301 -17 -7s3 -7 9 -7c23.333 0 38.666 -2.66699 45.999 -8s11 -12.666 11 -21.999c0 -6.66699 -0.5 -14.334 -1.5 -23.001s-4.16699 -22.334 -9.5 -41.001l-22 -76l-27.5 -93l-30.5 -99.5
l-30 -96.5l-25.5 -84l-18.5 -61h-4z" />
    <glyph glyph-name="X" unicode="X" horiz-adv-x="694" 
d="M124 97c-16 -25.333 -29.9971 -44.1699 -41.9971 -56.5029s-25.667 -20.5 -41 -24.5c-7.33301 -2 -14.5 -3.33301 -21.5 -4s-12.5 -1 -16.5 -1c-5.33301 0 -8 -2.33301 -8 -7s3.33301 -7 10 -7c8 0 16.833 0.166992 26.5 0.5l28 1
c9 0.333008 16.833 0.666016 23.5 0.999023s11 0.5 13 0.5s7 -0.166992 15 -0.5s17 -0.666016 27 -0.999023l30 -1c10 -0.333008 18 -0.5 24 -0.5c8 0 12 2.33301 12 7s-2.66699 7 -8 7c-2.66699 0 -5.66699 0.166992 -9 0.5s-6.66602 0.833008 -9.99902 1.5
c-10.667 2.66699 -16 9 -16 19c0 5.33301 1 12 3 20s5.33301 16 10 24l156 265l88 -150l84 -148c4.66699 -8 5.66699 -14.333 3 -19s-5.33398 -7.66699 -8.00098 -9c-4 -1.33301 -6 -4 -6 -8c0 -2.66699 1.83301 -4.5 5.5 -5.5s12.167 -1.83301 25.5 -2.5
c25.333 -1.33301 50.666 -2 75.999 -2h84c9.33301 0 14 2.66699 14 8c0 4 -2.66699 6 -8 6c-3.33301 0 -8.16602 0.5 -14.499 1.5s-13.166 2.5 -20.499 4.5c-14.667 4.66699 -26.167 10.667 -34.5 18s-16.5 16.333 -24.5 27c-3.33301 4.66699 -10.5 15.667 -21.5 33
l-38.5 62.5l-46.5 77.5l-46 77.5l-37.5 63.5l-21 35l161 242c14.667 21.333 27.5 39 38.5 53s23.833 23.333 38.5 28c5.33301 2 11.333 3.33301 18 4s11.667 1 15 1c7.33301 0 11 2.33301 11 7s-5.33301 7 -16 7c-17.333 0 -34.5 -0.5 -51.5 -1.5s-27.833 -1.5 -32.5 -1.5
s-15.834 0.5 -33.501 1.5s-36.167 1.5 -55.5 1.5c-11.333 0 -17 -2.33301 -17 -7s3 -7 9 -7c3.33301 0 7.83301 -0.166992 13.5 -0.5s11.167 -1.16602 16.5 -2.49902c11.333 -3.33301 17 -9.33301 17 -18c0 -6 -0.833008 -11.667 -2.5 -17s-4.16699 -11.666 -7.5 -18.999
l-12.5 -21.5l-23.5 -39l-30 -48.5l-31.5 -50.5l-29 -44.5l-20.5 -31l-71 122l-64 117c-6.66699 12 -10 23 -10 33c0 8.66699 4 14.334 12 17.001c4 1.33301 8.66699 2.16602 14 2.49902s9.66602 0.5 12.999 0.5c6 0 9 2.33301 9 7c0 2.66699 -1 4.5 -3 5.5
s-6.66699 1.5 -14 1.5c-8.66699 0 -18 -0.166992 -28 -0.5s-19.5 -0.666016 -28.5 -0.999023s-17 -0.666016 -24 -0.999023s-11.5 -0.5 -13.5 -0.5s-7.83301 0.166992 -17.5 0.5s-20.834 0.666016 -33.501 0.999023l-37.5 1c-12.333 0.333008 -21.833 0.5 -28.5 0.5
c-11.333 0 -17 -2.33301 -17 -7s3 -7 9 -7c3.33301 0 9.16602 -0.5 17.499 -1.5s16.5 -2.83301 24.5 -5.5c17.333 -6 31.833 -16 43.5 -30s23.167 -30.667 34.5 -50l160 -269z" />
    <glyph glyph-name="Y" unicode="Y" horiz-adv-x="654" 
d="M289 170c0 -8 -0.172852 -21.333 -0.505859 -40s-1.16602 -38.667 -2.49902 -60c-1.33301 -14.667 -4.33301 -27 -9 -37s-12 -16 -22 -18c-4.66699 -1.33301 -9.66699 -2.33301 -15 -3s-10.333 -1 -15 -1c-5.33301 0 -8 -2 -8 -6c0 -5.33301 5.33301 -8 16 -8
c7.33301 0 16.333 0.166992 27 0.5l31 1c10 0.333008 18.833 0.666016 26.5 0.999023s12.167 0.5 13.5 0.5s5.83301 -0.166992 13.5 -0.5s17.334 -0.666016 29.001 -0.999023s24.5 -0.666016 38.5 -0.999023s28 -0.5 42 -0.5c10.667 0 16 2.66699 16 8c0 4 -2.66699 6 -8 6
c-4.66699 0 -11.5 0.333008 -20.5 1s-17.167 1.66699 -24.5 3c-15.333 2 -25.666 8 -30.999 18s-8.66602 22.333 -9.99902 37c-1.33301 21.333 -2.16602 41.333 -2.49902 60s-0.5 32 -0.5 40v86c0 16.667 0.666992 33 2 49s5.66602 33 12.999 51
c2.66699 7.33301 8.66699 19.333 18 36l32.5 57l39.5 67.5l41 67l36 56c10.667 16.333 18.667 27.833 24 34.5c11.333 13.333 20.5 23.666 27.5 30.999s15.5 14 25.5 20c8 5.33301 16.333 9 25 11s15.667 3 21 3c8.66699 0 13 2.66699 13 8c0 4 -4.33301 6 -13 6
c-4.66699 0 -12.167 -0.166992 -22.5 -0.5l-31 -1c-10.333 -0.333008 -19.833 -0.666016 -28.5 -0.999023s-13.667 -0.5 -15 -0.5c-4 0 -12.667 0.5 -26 1.5s-26.666 1.5 -39.999 1.5c-10.667 0 -16 -2 -16 -6c0 -3.33301 5 -6.66602 15 -9.99902
c6 -1.33301 10.167 -4.5 12.5 -9.5s3.5 -11.167 3.5 -18.5c0 -6.66699 -1.16699 -14.167 -3.5 -22.5s-6.83301 -17.833 -13.5 -28.5l-18 -30l-30 -51.5l-35.5 -62.5l-35.5 -62.5l-29.5 -53c-8.33301 -15.667 -14.166 -27.167 -17.499 -34.5
c-3.33301 4.66699 -9.66602 15.167 -18.999 31.5l-33 57l-40.5 69.5l-40.5 69.5l-33 57l-18 31.5c-4 7.33301 -7.16699 14.166 -9.5 20.499s-3.5 12.5 -3.5 18.5c0 7.33301 4.33301 13.333 13 18c4.66699 2 8.33398 3.5 11.001 4.5s4 2.5 4 4.5s-0.833008 3.66699 -2.5 5
s-5.16699 2 -10.5 2c-19.333 0 -37.333 -0.5 -54 -1.5s-26.667 -1.5 -30 -1.5c-1.33301 0 -6.33301 0.166992 -15 0.5s-18.5 0.666016 -29.5 0.999023l-32 1c-10.333 0.333008 -17.833 0.5 -22.5 0.5c-8.66699 0 -13 -2.33301 -13 -7s3.33301 -7 10 -7
c4.66699 0 11.167 -1.33301 19.5 -4s16.166 -6.66699 23.499 -12c9.33301 -6 19.833 -15.167 31.5 -27.5s23.834 -27.833 36.501 -46.5c6 -8.66699 14.333 -21.5 25 -38.5l35 -56l38.5 -63l36.5 -60c11.333 -18.333 20.666 -34 27.999 -47s11.666 -20.833 12.999 -23.5
c3.33301 -7.33301 6.33301 -14.333 9 -21s5 -14 7 -22s3.66699 -17 5 -27s2 -21.667 2 -35v-86z" />
    <glyph glyph-name="Z" unicode="Z" horiz-adv-x="692" 
d="M184 40l226.999 345l221 345c2 3.33301 3.16699 5.66602 3.5 6.99902s0.5 3 0.5 5c0 5.33301 -6.66699 8 -20 8h-279h-63c-26.667 0 -63.667 1 -111 3c-13.333 0.666992 -22.5 2 -27.5 4s-9.83301 3 -14.5 3s-8 -6.33301 -10 -19l-5.5 -31.5
c-2.33301 -13.667 -4.5 -27.5 -6.5 -41.5l-5.5 -38.5c-1.66699 -11.667 -2.5 -18.834 -2.5 -21.501c0 -8.66699 2 -13 6 -13c2.66699 0 4.83398 1.16699 6.50098 3.5s3.16699 7.16602 4.5 14.499c1.33301 11.333 6.66602 25 15.999 41s23 28.667 41 38
c8 4 17.667 7.33301 29 10s23.333 4.83398 36 6.50098s25.834 2.66699 39.501 3s26.834 0.5 39.501 0.5h217l-216 -338.5l-223 -337.5c-6 -9.33301 -9.83301 -15.666 -11.5 -18.999s-2.5 -6.33301 -2.5 -9c0 -5.33301 6 -8 18 -8c88 0 174 -0.833008 258 -2.5
s168 -2.5 252 -2.5c6 0 10.5 0.166992 13.5 0.5s5.5 1.5 7.5 3.5s3.66699 4.66699 5 8s2.66602 8 3.99902 14l5.5 24c2.33301 10 4.5 20.5 6.5 31.5s3.83301 21.667 5.5 32s2.5 19.5 2.5 27.5c0 9.33301 -0.5 15.5 -1.5 18.5s-3.16699 4.5 -6.5 4.5c-4 0 -7 -5.33301 -9 -16
c-1.33301 -7.33301 -3.83301 -16.5 -7.5 -27.5s-7.83398 -19.833 -12.501 -26.5c-5.33301 -7.33301 -11.666 -14 -18.999 -20s-16.833 -11.167 -28.5 -15.5s-26.5 -7.66602 -44.5 -9.99902s-40 -3.5 -66 -3.5h-272z" />
    <glyph glyph-name="bracketleft" unicode="[" horiz-adv-x="360" 
d="M97 -108c0 -7.33301 0.833008 -11.835 2.5 -13.502s6.16699 -2.5 13.5 -2.5h170c8 0 12 2.33301 12 7s-5.66699 7.33398 -17 8.00098c-15.333 1.33301 -33.333 3.33301 -54 6s-38.667 7.66699 -54 15c-4.66699 19.333 -7 50.333 -7 93v610c0 42.667 2.33301 73.667 7 93
c15.333 6.66699 33.5 11.5 54.5 14.5s39.167 5.16699 54.5 6.5c11.333 0.666992 17 3.33398 17 8.00098s-4 7 -12 7h-170c-7.33301 0 -12 -0.833008 -14 -2.5s-3 -5.16699 -3 -10.5v-839z" />
    <glyph glyph-name="backslash" unicode="\" horiz-adv-x="524" 
d="M503 6c4.66699 2 4.66699 6.66602 0 13.999l-438 702c-4 6 -8.66699 7.33301 -14 4l-28 -17c-4 -2.66699 -4.66699 -6 -2 -10l441 -709c2 -3.33301 3.83301 -5.16602 5.5 -5.49902s3.5 0.166992 5.5 1.5z" />
    <glyph glyph-name="bracketright" unicode="]" horiz-adv-x="360" 
d="M263 728c0 7.33301 -0.833984 11.835 -2.50098 13.502s-6.16699 2.5 -13.5 2.5h-170c-8 0 -12 -2.33301 -12 -7s5.66699 -7.33398 17 -8.00098c15.333 -1.33301 33.333 -3.33301 54 -6s38.667 -7.66699 54 -15c4.66699 -19.333 7 -50.333 7 -93v-610
c0 -42.667 -2.33301 -73.667 -7 -93c-15.333 -7.33301 -33.666 -12.333 -54.999 -15s-39.333 -4.66699 -54 -6c-11.333 -0.666992 -17 -3.33398 -17 -8.00098s4 -7 12 -7h170c7.33301 0 12 0.833008 14 2.5s3 5.16699 3 10.5v839z" />
    <glyph glyph-name="asciicircum" unicode="^" horiz-adv-x="510" 
d="M229 751l-199 -426h54l171 371l171 -371h54l-199 426h-52z" />
    <glyph glyph-name="underscore" unicode="_" horiz-adv-x="500" 
d="M0 -75v-50h500v50h-500z" />
    <glyph glyph-name="grave" unicode="`" horiz-adv-x="911" 
d="M506 830c6 0 9.00195 1.66797 9.00195 5.00098c0 2 -1.83301 4 -5.5 6s-8.16699 4.66699 -13.5 8l-31.5 21.5c-11 7.66699 -21 15 -30 22l-23.5 18.5c-6.66699 5.33301 -11 9 -13 11c-4.66699 4.66699 -7.66699 8.5 -9 11.5s-3.33301 4.5 -6 4.5
c-2 0 -4.16699 -0.5 -6.5 -1.5s-5.5 -2.16699 -9.5 -3.5c-6 -2.66699 -14.833 -5.66699 -26.5 -9l-33.5 -10c-7.33301 -2 -11 -4.66699 -11 -8c0 -4 9.66699 -9.66699 29 -17c2.66699 -1.33301 8.5 -3.5 17.5 -6.5s19.833 -6.83301 32.5 -11.5s26 -9.33398 40 -14.001
l39.5 -13c12.333 -4 23.166 -7.33301 32.499 -10s15.666 -4 18.999 -4z" />
    <glyph glyph-name="a" unicode="a" horiz-adv-x="624" 
d="M82 91c-8.66699 -21.333 -18.1709 -39.002 -28.5039 -53.002s-25.5 -22.333 -45.5 -25c-3.33301 -0.666992 -7.66602 -1.16699 -12.999 -1.5s-9.66602 -0.5 -12.999 -0.5c-5.33301 0 -8 -2.33301 -8 -7s5.66699 -7 17 -7c8.66699 0 17.834 0.166992 27.501 0.5
s18.667 0.666016 27 0.999023s15.666 0.666016 21.999 0.999023s10.5 0.5 12.5 0.5c2.66699 0 7.16699 -0.166992 13.5 -0.5s13.5 -0.666016 21.5 -0.999023l24 -1c8 -0.333008 14.667 -0.5 20 -0.5c8.66699 0 13 2.33301 13 7s-3 7 -9 7h-8
c-7.33301 0 -14.166 1.66699 -20.499 5s-9.5 9.33301 -9.5 18c0 15.333 4.33301 34.333 13 57l50 136c2 4.66699 5 7 9 7h203c3.33301 0 6 -1.66699 8 -5l79 -195c3.33301 -7.33301 3.5 -12.666 0.5 -15.999s-5.83301 -5.66602 -8.5 -6.99902
c-2 -1.33301 -3.5 -2.16602 -4.5 -2.49902s-1.5 -1.5 -1.5 -3.5c0 -2.66699 3 -4.16699 9 -4.5s13.333 -0.833008 22 -1.5c15.333 -0.666992 30.5 -1.16699 45.5 -1.5s28.833 -0.5 41.5 -0.5h33h19c5.33301 0 10 0.5 14 1.5s6 2.83301 6 5.5s-1.16699 4.5 -3.5 5.5
s-4.83301 1.5 -7.5 1.5c-4.66699 0 -10 0.333008 -16 1s-12.333 2 -19 4c-4.66699 1.33301 -9.66699 3.33301 -15 6s-11.166 7.33398 -17.499 14.001s-13 15.667 -20 27s-14.5 26.666 -22.5 45.999l-33.5 80.5l-41.5 102.5l-44.5 109.5l-41.5 102l-32.5 79.5
c-9 22 -14.833 36 -17.5 42c-4.66699 9.33301 -8.16699 16.833 -10.5 22.5s-5.83301 8.5 -10.5 8.5c-3.33301 0 -6.33301 -2 -9 -6s-6.66699 -13 -12 -27zM208.996 268.998c-3.33301 0 -4.33301 2 -3 6l82 233c4.66699 12.667 9.66699 12.667 15 0l87 -233
c0.666992 -4 -0.333008 -6 -3 -6h-178z" />
    <glyph glyph-name="b" unicode="b" horiz-adv-x="614" 
d="M155 244c0 -41.333 -0.162109 -78.001 -0.495117 -110.001s-1.83301 -56.667 -4.5 -74c-2 -12.667 -4.16699 -23.334 -6.5 -32.001s-7.83301 -13.667 -16.5 -15c-4 -0.666992 -8.5 -1.5 -13.5 -2.5s-9.5 -1.5 -13.5 -1.5c-4.66699 0 -7 -1.66699 -7 -5
c0 -4.66699 4.66699 -7 14 -7c7.33301 0 15.666 0.166992 24.999 0.5s18.666 0.833008 27.999 1.5c9.33301 0 17.333 0.166992 24 0.5s10.667 0.5 12 0.5c2 0 8.5 -0.166992 19.5 -0.5s23.5 -0.833008 37.5 -1.5c14 -1.33301 28.167 -2.16602 42.5 -2.49902
s25.5 -0.5 33.5 -0.5c37.333 0 69.833 5.33301 97.5 16s50.667 24.834 69 42.501s32 37.834 41 60.501s13.5 46 13.5 70s-5 45.833 -15 65.5s-22.5 36.834 -37.5 51.501s-31.667 27 -50 37s-35.833 17.667 -52.5 23l33 30.5c10.667 10.333 20.167 21.5 28.5 33.5
s15 25 20 39s7.5 29.333 7.5 46c0 11.333 -2.66699 24.5 -8 39.5s-15 29.167 -29 42.5s-33 24.666 -57 33.999s-54.333 14 -91 14c-20.667 0 -40.334 -0.333008 -59.001 -1s-33.334 -1 -44.001 -1c-1.33301 0 -5.5 0.166992 -12.5 0.5s-15.5 0.5 -25.5 0.5
s-20.667 0.166992 -32 0.5s-22 0.5 -32 0.5c-9.33301 0 -14 -2.33301 -14 -7c0 -3.33301 2.33301 -5 7 -5c4 0 9.16699 -0.166992 15.5 -0.5s11.166 -0.833008 14.499 -1.5c14.667 -2 24 -7 28 -15s6.66699 -19.333 8 -34c0.666992 -6.66699 1.16699 -13.834 1.5 -21.501
s0.5 -18.167 0.5 -31.5v-50v-80v-150zM231.005 599.999c0 4 3.66797 7.00195 11.001 9.00195c7.33301 1.33301 15.333 2.33301 24 3s15.667 1 21 1c22 0 40.833 -4.16699 56.5 -12.5s28.5 -19 38.5 -32s17.333 -27.667 22 -44s7 -32.5 7 -48.5
c0 -20.667 -3.33301 -38.334 -10 -53.001s-14.667 -27.334 -24 -38.001c-9.33301 -10 -19.833 -16.167 -31.5 -18.5s-29.834 -3.5 -54.501 -3.5c-16.667 0 -29.167 0.5 -37.5 1.5s-13.833 1.83301 -16.5 2.5c-4 0.666992 -6 3.66699 -6 9v224zM231.006 329.001
c0 4 1.6709 6.00098 5.00391 6.00098h15h20c7.33301 0 14.166 -0.166992 20.499 -0.5s10.833 -0.833008 13.5 -1.5c10.667 -2 22.667 -3.83301 36 -5.5s27.666 -7.16699 42.999 -16.5c17.333 -11.333 31.5 -23.833 42.5 -37.5s19.5 -27.667 25.5 -42
s10.167 -28.166 12.5 -41.499s3.5 -24.666 3.5 -33.999c0 -27.333 -4 -49.5 -12 -66.5s-18.333 -30.333 -31 -40s-26.5 -16.167 -41.5 -19.5s-29.833 -5 -44.5 -5c-8 0 -19.833 0.666992 -35.5 2s-29.5 4.66602 -41.5 9.99902
c-6.66699 3.33301 -11.834 6.66602 -15.501 9.99902s-6.5 7.16602 -8.5 11.499s-3.33301 10 -4 17s-1.33398 15.5 -2.00098 25.5c0 3.33301 -0.166992 11.5 -0.5 24.5s-0.5 28.167 -0.5 45.5v56v55v47z" />
    <glyph glyph-name="c" unicode="c" horiz-adv-x="708" 
d="M452 -14c28.667 0 57.834 1.33594 87.501 4.00293s53.5 7.66699 71.5 15c7.33301 3.33301 12.166 6.33301 14.499 9s4.83301 8 7.5 16c2 7.33301 4.33301 16.833 7 28.5s5 23.167 7 34.5s3.66699 21.5 5 30.5s2 14.167 2 15.5c0 3.33301 -0.833008 6.16602 -2.5 8.49902
s-3.5 3.5 -5.5 3.5c-3.33301 0 -5.33301 -0.833008 -6 -2.5s-1.66699 -4.83398 -3 -9.50098c-1.33301 -8 -5 -19.5 -11 -34.5s-13.667 -27.167 -23 -36.5c-17.333 -17.333 -37.5 -28.333 -60.5 -33s-51.167 -7 -84.5 -7c-47.333 0 -90.333 8.33301 -129 25
s-72 39.167 -100 67.5s-49.667 61.166 -65 98.499s-23 76.333 -23 117c0 43.333 5 83.666 15 120.999s31.333 71 64 101c8 7.33301 17.5 14.5 28.5 21.5s24.333 13.333 40 19s34.167 10.167 55.5 13.5s46 5 74 5c39.333 0 74.166 -4.5 104.499 -13.5
s53.166 -20.167 68.499 -33.5c11.333 -9.33301 20.333 -21.666 27 -36.999s10 -31.333 10 -48c0 -12 2.33301 -18 7 -18c6 0 9.33301 6 10 18c0 2.66699 0.166992 7.5 0.5 14.5s0.5 14.5 0.5 22.5c0 8.66699 0.166992 17.334 0.5 26.001s0.5 16.667 0.5 24
c1.33301 15.333 2.33301 26.333 3 33s1 11.667 1 15c0 6 -3.66699 9 -11 9c-14.667 0.666992 -29.167 2.16699 -43.5 4.5s-29.833 5.16602 -46.5 8.49902c-21.333 3.33301 -43.666 5.83301 -66.999 7.5s-43.666 2.5 -60.999 2.5c-34 0 -64.5 -2.33301 -91.5 -7
s-51.333 -11.167 -73 -19.5s-41 -18 -58 -29s-32.167 -22.833 -45.5 -35.5c-19.333 -19.333 -35.5 -39.5 -48.5 -60.5s-23.167 -41.833 -30.5 -62.5s-12.5 -40.5 -15.5 -59.5s-4.5 -35.5 -4.5 -49.5c0 -20 1.5 -41 4.5 -63s8.5 -43.833 16.5 -65.5s19 -43 33 -64
s31.667 -40.833 53 -59.5c34.667 -30 75 -52.667 121 -68s102.333 -23 169 -23z" />
    <glyph glyph-name="d" unicode="d" horiz-adv-x="809" 
d="M155 244c0 -41.333 -0.163086 -78 -0.496094 -110s-1.83301 -56.667 -4.5 -74c-2 -12.667 -4.16699 -22.834 -6.5 -30.501s-7.83301 -12.5 -16.5 -14.5c-4 -1.33301 -8.5 -2.33301 -13.5 -3s-9.5 -1 -13.5 -1c-4.66699 0 -7 -2.33301 -7 -7s4.66699 -7 14 -7
c7.33301 0 15.666 0.166992 24.999 0.5s18.666 0.833008 27.999 1.5c9.33301 0 17.333 0.166992 24 0.5s10.667 0.5 12 0.5c2 0 9.66699 -0.5 23 -1.5l49 -3.5c19.333 -1.33301 39.833 -2.5 61.5 -3.5s42.167 -1.5 61.5 -1.5c37.333 0 70.5 3.33301 99.5 10
s54.333 14.834 76 24.501s40 20.167 55 31.5s27.167 22 36.5 32c12 12.667 23.833 27.167 35.5 43.5s21.834 34.5 30.501 54.5s15.667 41.833 21 65.5s8 48.834 8 75.501c0 50.667 -8.83301 93.834 -26.5 129.501s-37.5 64.5 -59.5 86.5c-26 26 -54.833 45.833 -86.5 59.5
s-63.667 23.167 -96 28.5s-63.333 8.16602 -93 8.49902s-55.5 0.5 -77.5 0.5c-13.333 0 -26.333 -0.166992 -39 -0.5s-24.667 -0.5 -36 -0.5c-10.667 0 -19.834 -0.166992 -27.501 -0.5s-12.834 -0.5 -15.501 -0.5c-1.33301 0 -5.5 0.166992 -12.5 0.5s-15.5 0.5 -25.5 0.5
s-20.667 0.166992 -32 0.5s-22 0.5 -32 0.5c-9.33301 0 -14 -2.33301 -14 -7s2.33301 -7 7 -7c4 0 9.16699 -0.166992 15.5 -0.5s11.166 -0.833008 14.499 -1.5c14.667 -2 24 -6.66699 28 -14s6.66699 -18.333 8 -33c0.666992 -6.66699 1.16699 -13.834 1.5 -21.501
s0.5 -18.167 0.5 -31.5v-50v-80v-150zM235.004 586c0 8.66699 3.66699 14.335 11 17.002c4 1.33301 11.667 2.66602 23 3.99902s21.333 2 30 2c26 0 51.667 -1 77 -3s50 -6.33301 74 -13s47.167 -16.334 69.5 -29.001s43.833 -29.334 64.5 -50.001
c8.66699 -9.33301 18 -20.5 28 -33.5s19 -28.333 27 -46s14.667 -37.667 20 -60s8 -46.833 8 -73.5c0 -19.333 -1.5 -38.833 -4.5 -58.5s-7.33301 -38.334 -13 -56.001s-12.834 -34 -21.501 -49s-18.667 -27.833 -30 -38.5c-26.667 -25.333 -57.5 -44.5 -92.5 -57.5
s-72.833 -19.5 -113.5 -19.5c-26 0 -47.667 1 -65 3s-31.5 4.66699 -42.5 8s-19.5 7 -25.5 11s-10.333 8 -13 12c-3.33301 4.66699 -5.66602 13.334 -6.99902 26.001s-2.33301 24.334 -3 35.001c0 4 -0.166992 11.667 -0.5 23s-0.5 25 -0.5 41v56v65v284z" />
    <glyph glyph-name="e" unicode="e" horiz-adv-x="551" 
d="M155 244c0 -41.333 -0.158203 -77.9971 -0.491211 -109.997s-1.83301 -56.667 -4.5 -74c-2 -12.667 -4.16699 -23 -6.5 -31s-7.83301 -12.667 -16.5 -14c-4 -0.666992 -8.5 -1.5 -13.5 -2.5s-9.5 -1.5 -13.5 -1.5c-4.66699 0 -7 -2.33301 -7 -7s4.66699 -7 14 -7
c7.33301 0 15.5 0.166992 24.5 0.5s17.833 0.833008 26.5 1.5c9.33301 0.666992 17.666 1 24.999 1h13h27c12 0 27.333 -0.666992 46 -2c18 -0.666992 39.667 -1.33398 65 -2.00098s54.666 -1 87.999 -1c8.66699 0 15.834 0.166992 21.501 0.5s10.167 1.16602 13.5 2.49902
s6.16602 3.5 8.49902 6.5s4.16602 7.16699 5.49902 12.5c1.33301 4.66699 2.66602 11.167 3.99902 19.5l4 26c1.33301 9 2.33301 17 3 24s1 11.167 1 12.5c0 3.33301 -0.333008 6.33301 -1 9s-2.33398 4 -5.00098 4c-4 0 -7 -4.33301 -9 -13
c-2.66699 -17.333 -7.16699 -30.166 -13.5 -38.499s-15.166 -15.166 -26.499 -20.499c-11.333 -4.66699 -26 -7.33398 -44 -8.00098s-32.667 -1 -44 -1c-22 0 -39.667 0.833008 -53 2.5s-23.833 5 -31.5 10s-12.834 12 -15.501 21s-4.33398 20.5 -5.00098 34.5v25v43v44v33
v71c0 4 2 6 6 6h24c12 0 25 -0.166992 39 -0.5s27.667 -0.833008 41 -1.5s23 -1.33398 29 -2.00098c17.333 -2 28.833 -5.33301 34.5 -10s9.16699 -10 10.5 -16c2 -5.33301 3.16699 -10.333 3.5 -15s0.5 -9 0.5 -13c0 -5.33301 2 -8 6 -8c3.33301 0 5.5 1.83301 6.5 5.5
s1.5 7.16699 1.5 10.5s0.333008 11.166 1 23.499s1.66699 22.833 3 31.5c1.33301 14 2.83301 24.667 4.5 32s2.5 12.333 2.5 15c0 4.66699 -1.66699 7 -5 7c-1.33301 0 -5.66602 -3.66699 -12.999 -11c-4.66699 -4.66699 -10.334 -7.5 -17.001 -8.5
s-15.334 -2.16699 -26.001 -3.5c-5.33301 -0.666992 -15.333 -1.16699 -30 -1.5s-30.334 -0.5 -47.001 -0.5h-46h-24c-3.33301 0 -5 3 -5 9v231c0 6 1.66699 9 5 9h22c12 0 25.167 -0.166992 39.5 -0.5s27.833 -0.666016 40.5 -0.999023s21 -0.833008 25 -1.5
c12 -1.33301 21.667 -2.83301 29 -4.5s13.333 -3.5 18 -5.5s8.16699 -4.33301 10.5 -7s4.16602 -5.66699 5.49902 -9c2 -5.33301 3.33301 -10.833 4 -16.5s1 -10.167 1 -13.5c0 -7.33301 2.33301 -11 7 -11c2 0 3.66699 1 5 3s2.33301 4 3 6
c0.666992 2.66699 1.16699 6.66699 1.5 12s0.833008 11 1.5 17s1.16699 11.5 1.5 16.5s0.5 8.5 0.5 10.5c1.33301 12 2.83301 20.833 4.5 26.5s2.5 10.167 2.5 13.5c0 5.33301 -1.33301 8 -4 8c-2 0 -4 -0.5 -6 -1.5s-4 -1.83301 -6 -2.5
c-3.33301 -0.666992 -8.66602 -1.5 -15.999 -2.5s-15.333 -1.83301 -24 -2.5h-22h-40h-49h-47h-36h-16c-1.33301 0 -5.5 0.166992 -12.5 0.5s-15.5 0.5 -25.5 0.5s-20.667 0.166992 -32 0.5s-22 0.5 -32 0.5c-9.33301 0 -14 -2.33301 -14 -7s2.33301 -7 7 -7
c4 0 9.16699 -0.166992 15.5 -0.5s11.166 -0.833008 14.499 -1.5c14.667 -2 24 -6.66699 28 -14s6.66699 -18.333 8 -33c0.666992 -6.66699 1.16699 -13.834 1.5 -21.501s0.5 -18.167 0.5 -31.5v-50v-80v-150z" />
    <glyph glyph-name="f" unicode="f" 
d="M155 244c0 -41.333 -0.165039 -78.0049 -0.498047 -110.005s-1.83301 -56.667 -4.5 -74c-2 -12.667 -4.16699 -23 -6.5 -31s-7.83301 -12.667 -16.5 -14c-4 -0.666992 -8.5 -1.5 -13.5 -2.5s-9.5 -1.5 -13.5 -1.5c-4.66699 0 -7 -2.33301 -7 -7s4.66699 -7 14 -7
c6.66699 0 14.667 0.166992 24 0.5l27.5 1c9 0.333008 16.833 0.666016 23.5 0.999023s10.667 0.5 12 0.5c0.666992 0 4.5 -0.166992 11.5 -0.5s15.833 -0.666016 26.5 -0.999023s22.334 -0.666016 35.001 -0.999023s25 -0.5 37 -0.5c9.33301 0 14 2.33301 14 7
s-2.33301 7 -7 7c-4 0 -10 0.333008 -18 1s-15.333 1.66699 -22 3c-12 2 -20 6.83301 -24 14.5s-6.66699 17.834 -8 30.501c-2 16.667 -3.16699 41 -3.5 73s-0.5 69 -0.5 111v68c0 5.33301 2 8 6 8h25h43c15.333 0 30 -0.166992 44 -0.5s23.667 -0.833008 29 -1.5
c13.333 -2 23.666 -5.5 30.999 -10.5s12 -10.5 14 -16.5c2 -5.33301 3.33301 -10.666 4 -15.999s1.33398 -10.333 2.00098 -15c0 -5.33301 2 -8 6 -8c3.33301 0 5.5 1.83301 6.5 5.5s1.5 7.5 1.5 11.5c0 3.33301 0.166992 11.5 0.5 24.5s1.16602 23.833 2.49902 32.5
c1.33301 14 3 24.667 5 32s3 12.333 3 15c0 4.66699 -1.66699 7 -5 7c-2.66699 0 -6.33398 -3 -11.001 -9c-4 -5.33301 -9.16699 -8.83301 -15.5 -10.5s-14.833 -3.16699 -25.5 -4.5c-6 -0.666992 -12.333 -1 -19 -1h-21l-120 -1c-3.33301 0 -5.16602 0.666992 -5.49902 2
s-0.5 3.33301 -0.5 6v232c0 6 2.33301 9 7 9l144 -2c17.333 0 31 -2.83301 41 -8.5s16.333 -11.167 19 -16.5s4.66699 -11.166 6 -17.499s2 -11.166 2 -14.499c0 -6.66699 2.33301 -10 7 -10c2 0 3.66699 1 5 3s2.33301 4 3 6c0.666992 2.66699 1.16699 6.66699 1.5 12
s0.666016 11 0.999023 17s0.666016 11.5 0.999023 16.5s0.5 8.5 0.5 10.5c1.33301 12 2.83301 20.833 4.5 26.5s2.5 10.167 2.5 13.5c0 5.33301 -2 8 -6 8c-1.33301 0 -3 -0.666992 -5 -2s-4.33301 -2.33301 -7 -3c-4 -1.33301 -9.5 -2.16602 -16.5 -2.49902
s-14.833 -0.833008 -23.5 -1.5h-23h-41h-51h-51h-41h-21c-1.33301 0 -5.33301 0.166992 -12 0.5s-15 0.5 -25 0.5c-9.33301 0 -19.666 0.166992 -30.999 0.5s-22 0.5 -32 0.5c-9.33301 0 -14 -2.33301 -14 -7s2.33301 -7 7 -7c4 0 9.16699 -0.166992 15.5 -0.5
s11.166 -0.833008 14.499 -1.5c14.667 -2 24 -6.66699 28 -14s6.66699 -18.333 8 -33c0.666992 -6.66699 1.16699 -13.834 1.5 -21.501s0.5 -18.167 0.5 -31.5v-50v-80v-150z" />
    <glyph glyph-name="g" unicode="g" horiz-adv-x="759" 
d="M569 67c0 -8 -1.66602 -13.499 -4.99902 -16.499s-7.66602 -6.16699 -12.999 -9.5c-11.333 -6.66699 -26.166 -11 -44.499 -13s-35.166 -3 -50.499 -3c-40.667 0 -79.5 6.66699 -116.5 20s-73.167 36.333 -108.5 69c-8 7.33301 -17.333 18 -28 32s-20.834 31 -30.501 51
s-17.834 42.833 -24.501 68.5s-10 53.5 -10 83.5c0 50 8.16699 93.333 24.5 130s37.166 64.667 62.499 84c33.333 25.333 65.666 40.833 96.999 46.5s60.333 8.5 87 8.5c57.333 0 102.666 -7 135.999 -21s55.666 -29 66.999 -45c7.33301 -10 12.333 -20.5 15 -31.5
s4.33398 -19.167 5.00098 -24.5c0 -8.66699 2 -13 6 -13c3.33301 0 5.83301 1.16699 7.5 3.5s2.5 7.16602 2.5 14.499c0 21.333 0.333008 39 1 53s1.16699 25.5 1.5 34.5s0.833008 15.833 1.5 20.5s1 8.66699 1 12c0 5.33301 -3.66699 8 -11 8
c-11.333 0 -23.666 1 -36.999 3s-24.666 4 -33.999 6l-20 3.5c-9.33301 1.66699 -20.166 3.33398 -32.499 5.00098s-25.666 3 -39.999 4s-28.5 1.5 -42.5 1.5c-34 0 -71.5 -3 -112.5 -9s-81.5 -21 -121.5 -45c-19.333 -12 -38 -26.833 -56 -44.5s-33.667 -38.167 -47 -61.5
s-24 -49.5 -32 -78.5s-12 -60.5 -12 -94.5c0 -26.667 3 -52.167 9 -76.5s13.833 -46.833 23.5 -67.5s20.834 -39.334 33.501 -56.001s25.667 -30.667 39 -42c24.667 -20.667 50.5 -37 77.5 -49s53.5 -21.167 79.5 -27.5s50.5 -10.333 73.5 -12s42.833 -2.5 59.5 -2.5
c12.667 0 27 0.666992 43 2s32.333 3.5 49 6.5s33.167 6.83301 49.5 11.5s31.5 10.667 45.5 18c5.33301 2.66699 8.66602 6.16699 9.99902 10.5s2 16.166 2 35.499v95v47c0 14 0.333008 27.667 1 41c1.33301 15.333 4.16602 26.5 8.49902 33.5s12.5 11.5 24.5 13.5
c5.33301 1.33301 9.33301 2 12 2h10c4.66699 0 7 2.33301 7 7s-4.66699 7 -14 7c-6.66699 0 -14.667 -0.166992 -24 -0.5s-18.666 -0.5 -27.999 -0.5c-8.66699 0 -16.334 -0.166992 -23.001 -0.5s-10.334 -0.5 -11.001 -0.5c-1.33301 0 -5.66602 0.166992 -12.999 0.5
s-16 0.5 -26 0.5s-20.833 0.166992 -32.5 0.5s-22.5 0.5 -32.5 0.5c-9.33301 0 -14 -2.33301 -14 -7s2.33301 -7 7 -7c4 0 9.16699 -0.166992 15.5 -0.5s11.166 -0.833008 14.499 -1.5c8.66699 -2 15.667 -4.33301 21 -7s9.16602 -7 11.499 -13s3.83301 -14.167 4.5 -24.5
s1 -24.166 1 -41.499v-147z" />
    <glyph glyph-name="h" unicode="h" horiz-adv-x="847" 
d="M692 394l-0.000976562 79.9961v50c0 13.333 0.166992 23.833 0.5 31.5s0.833008 14.834 1.5 21.501c1.33301 15.333 3.83301 26.333 7.5 33s11.167 11.334 22.5 14.001c5.33301 1.33301 9.33301 2 12 2h10c5.33301 0 8 2.33301 8 7s-5 7 -15 7
c-6.66699 0 -14.667 -0.166992 -24 -0.5s-18.666 -0.5 -27.999 -0.5c-8.66699 0 -16.334 -0.166992 -23.001 -0.5s-10.667 -0.5 -12 -0.5s-5.33301 0.166992 -12 0.5s-15 0.5 -25 0.5s-20.5 0.166992 -31.5 0.5s-21.5 0.5 -31.5 0.5c-9.33301 0 -14 -2.33301 -14 -7
s2.33301 -7 7 -7c4 0 9.16699 -0.166992 15.5 -0.5s11.166 -0.833008 14.499 -1.5c14.667 -2 23.834 -6.66699 27.501 -14s6.16699 -18.333 7.5 -33c0 -6.66699 0.166992 -13.834 0.5 -21.501s0.666016 -18.167 0.999023 -31.5s0.5 -30.666 0.5 -51.999v-80v-18
c0 -3.33301 -1.66699 -5 -5 -5h-367c-3.33301 0 -5 1.66699 -5 5v18v80v52c0 13.333 0.166992 23.833 0.5 31.5s0.5 14.834 0.5 21.501c1.33301 15.333 3.83301 26.333 7.5 33s11.5 11.334 23.5 14.001c5.33301 1.33301 9.33301 2 12 2h10c4.66699 0 7 2.33301 7 7
s-4.66699 7 -14 7c-6.66699 0 -14.834 -0.166992 -24.501 -0.5s-19.167 -0.5 -28.5 -0.5c-8.66699 0 -16.334 -0.166992 -23.001 -0.5s-10.334 -0.5 -11.001 -0.5c-1.33301 0 -5.5 0.166992 -12.5 0.5s-15.5 0.5 -25.5 0.5c-9.33301 0 -19.666 0.166992 -30.999 0.5
s-22 0.5 -32 0.5c-9.33301 0 -14 -2.33301 -14 -7s2.33301 -7 7 -7c4 0 9.16699 -0.166992 15.5 -0.5s11.166 -0.833008 14.499 -1.5c14.667 -2 24 -6.66699 28 -14s6.66699 -18.333 8 -33c0.666992 -6.66699 1.16699 -13.834 1.5 -21.501s0.5 -18.167 0.5 -31.5v-50v-80
v-150c0 -41.333 -0.166992 -78 -0.5 -110s-1.83301 -56.667 -4.5 -74c-2 -12.667 -4.16699 -22.834 -6.5 -30.501s-7.83301 -12.5 -16.5 -14.5c-4 -1.33301 -8.5 -2.33301 -13.5 -3s-9.5 -1 -13.5 -1c-4.66699 0 -7 -2.33301 -7 -7s4.66699 -7 14 -7
c6.66699 0 14.834 0.166992 24.501 0.5l28 1c9 0.333008 16.833 0.666016 23.5 0.999023s10.667 0.5 12 0.5c0.666992 0 4.5 -0.166992 11.5 -0.5s15.667 -0.666016 26 -0.999023s21.833 -0.666016 34.5 -0.999023s25 -0.5 37 -0.5c9.33301 0 14 2.33301 14 7
s-2.33301 7 -7 7c-4 0 -10 0.333008 -18 1s-15.333 1.66699 -22 3c-13.333 2 -21.666 6.83301 -24.999 14.5s-5.66602 17.834 -6.99902 30.501c-2 17.333 -3.16699 41.666 -3.5 72.999s-0.5 67.666 -0.5 108.999v85c0 3.33301 1.66699 5 5 5h367c3.33301 0 5 -1.66699 5 -5
v-85c0 -41.333 -0.166992 -77.5 -0.5 -108.5s-1.5 -55.167 -3.5 -72.5c-1.33301 -12.667 -3.33301 -23 -6 -31s-8.66699 -13 -18 -15c-4 -1.33301 -8.33301 -2.33301 -13 -3s-9 -1 -13 -1c-4.66699 0 -7 -2.33301 -7 -7s4.66699 -7 14 -7c6.66699 0 14.667 0.166992 24 0.5
l27.5 1c9 0.333008 16.833 0.666016 23.5 0.999023s10.667 0.5 12 0.5s5.5 -0.166992 12.5 -0.5s15.667 -0.666016 26 -0.999023s21.666 -0.666016 33.999 -0.999023s24.5 -0.5 36.5 -0.5c10 0 15 2.33301 15 7s-2.66699 7 -8 7c-3.33301 0 -9.16602 0.333008 -17.499 1
s-15.5 1.66699 -21.5 3c-13.333 2 -21.666 6.83301 -24.999 14.5s-5.66602 17.834 -6.99902 30.501c-2 17.333 -3.33301 42 -4 74s-1 68.667 -1 110v150z" />
    <glyph glyph-name="i" unicode="i" horiz-adv-x="389" 
d="M235 394v79.9971v50c0 13.333 0.166992 23.833 0.5 31.5s0.5 14.834 0.5 21.501c1.33301 15.333 3.83301 26.333 7.5 33s11.5 11.334 23.5 14.001c5.33301 1.33301 9.33301 2 12 2h10c4.66699 0 7 2.33301 7 7s-4.66699 7 -14 7
c-6.66699 0 -14.834 -0.166992 -24.501 -0.5s-19.167 -0.5 -28.5 -0.5c-8.66699 0 -16.5 -0.166992 -23.5 -0.5s-10.833 -0.5 -11.5 -0.5c-1.33301 0 -5.33301 0.166992 -12 0.5s-14.667 0.5 -24 0.5c-8.66699 0 -17.834 0.166992 -27.501 0.5s-18.167 0.5 -25.5 0.5
c-9.33301 0 -14 -2.33301 -14 -7s2.33301 -7 7 -7c3.33301 0 7.33301 -0.166992 12 -0.5s9.66699 -1.16602 15 -2.49902c9.33301 -2 16 -6.5 20 -13.5s6.66699 -17.833 8 -32.5c0.666992 -6.66699 1.16699 -13.834 1.5 -21.501s0.5 -18.167 0.5 -31.5v-50v-80v-150
c0 -41.333 -0.333008 -78 -1 -110s-2 -56.667 -4 -74c-1.33301 -12.667 -3.33301 -22.834 -6 -30.501s-8.33398 -12.5 -17.001 -14.5c-4 -1.33301 -8.5 -2.33301 -13.5 -3s-9.5 -1 -13.5 -1c-4.66699 0 -7 -2.33301 -7 -7s4.66699 -7 14 -7
c6.66699 0 14.667 0.166992 24 0.5l27.5 1c9 0.333008 16.833 0.666016 23.5 0.999023s10.667 0.5 12 0.5c0.666992 0 4.5 -0.166992 11.5 -0.5s15.833 -0.666016 26.5 -0.999023s22.334 -0.666016 35.001 -0.999023s25 -0.5 37 -0.5c9.33301 0 14 2.33301 14 7
s-2.33301 7 -7 7c-4 0 -10 0.333008 -18 1s-15.333 1.66699 -22 3c-13.333 2 -21.666 6.83301 -24.999 14.5s-5.66602 17.834 -6.99902 30.501c-2 17.333 -3.16699 42 -3.5 74s-0.5 68.667 -0.5 110v150z" />
    <glyph glyph-name="j" unicode="j" horiz-adv-x="369" 
d="M235 394l0.00292969 79.998v50c0 13.333 0.166992 23.833 0.5 31.5s0.5 14.834 0.5 21.501c1.33301 15.333 3.83301 26.333 7.5 33s11.5 11.334 23.5 14.001c5.33301 1.33301 9.33301 2 12 2h10c4.66699 0 7 2.33301 7 7s-4.66699 7 -14 7
c-6.66699 0 -14.667 -0.166992 -24 -0.5s-18.666 -0.5 -27.999 -0.5c-8.66699 0 -16.334 -0.166992 -23.001 -0.5s-10.334 -0.5 -11.001 -0.5c-1.33301 0 -5.5 0.166992 -12.5 0.5s-15.5 0.5 -25.5 0.5s-20.667 0.166992 -32 0.5s-22 0.5 -32 0.5
c-9.33301 0 -14 -2.33301 -14 -7s2.33301 -7 7 -7c4 0 9.16699 -0.166992 15.5 -0.5s11.166 -0.833008 14.499 -1.5c14.667 -2 24 -6.66699 28 -14s6.66699 -18.333 8 -33c0.666992 -6.66699 1.16699 -13.834 1.5 -21.501s0.5 -18.167 0.5 -31.5v-50v-80v-246
c0 -54.667 -1.66699 -99.5 -5 -134.5s-8.5 -63.833 -15.5 -86.5s-15.833 -41.334 -26.5 -56.001s-23 -29 -37 -43c-4 -3.33301 -8.83301 -7.16602 -14.5 -11.499s-11.167 -8.16602 -16.5 -11.499c-7.33301 -4.66699 -11 -9.33398 -11 -14.001c0 -2 0.666992 -3.33301 2 -4
s2.66602 -1 3.99902 -1s2.5 0.166992 3.5 0.5s1.83301 0.5 2.5 0.5l17 10c6.66699 4 13 8 19 12c36 23.333 64.167 45.5 84.5 66.5s35.166 42.167 44.499 63.5c6.66699 14.667 11.834 29.667 15.501 45s6.5 32.5 8.5 51.5s3.33301 40.833 4 65.5s1 54.334 1 89.001v204z" />
    <glyph glyph-name="k" unicode="k" horiz-adv-x="666" 
d="M155 244c0 -41.333 -0.169922 -78.001 -0.50293 -110.001s-1.83301 -56.667 -4.5 -74c-2 -12.667 -4.16699 -22.834 -6.5 -30.501s-7.83301 -12.5 -16.5 -14.5c-4 -1.33301 -8.5 -2.33301 -13.5 -3s-9.5 -1 -13.5 -1c-4.66699 0 -7 -2.33301 -7 -7s4.66699 -7 14 -7
c6.66699 0 14.667 0.166992 24 0.5l27 1c8.66699 0.333008 16.334 0.666016 23.001 0.999023s11 0.5 13 0.5s6.33301 -0.166992 13 -0.5s15 -0.666016 25 -0.999023s20.667 -0.666016 32 -0.999023s22.333 -0.5 33 -0.5c9.33301 0 14 2.33301 14 7s-2.33301 7 -7 7
c-4 0 -9.16699 0.333008 -15.5 1s-12.5 1.66699 -18.5 3c-13.333 2 -22 6.83301 -26 14.5s-6.66699 17.834 -8 30.501c-2 17.333 -3.16699 42 -3.5 74s-0.5 68.667 -0.5 110v83h4c6.66699 -8.66699 17.167 -20.667 31.5 -36l47.5 -51l55 -58l55.5 -56.5l47 -46.5
c13.667 -13.333 23.834 -22.666 30.501 -27.999l26 -20c8 -6 16.167 -11.167 24.5 -15.5s17 -8 26 -11s19.167 -4.83301 30.5 -5.5c10 -1.33301 19.333 -2 28 -2h33h45c7.33301 0 12.333 0.666992 15 2s4 3 4 5c0 4.66699 -3.66699 7 -11 7
c-3.33301 0 -10.333 0.833008 -21 2.5s-21.667 4.83398 -33 9.50098c-10.667 4 -19.667 8.16699 -27 12.5s-15.333 9.66602 -24 15.999s-18.667 14.666 -30 24.999l-45 40.5c-6 5.33301 -15.667 14.5 -29 27.5l-45 44l-52 52l-51 51.5l-41.5 42l-23.5 24l19.5 19.5
l33.5 33.5l41 40l42 40l34.5 33c9.66699 9.33301 16.5 15.666 20.5 18.999c19.333 18.667 35 33.334 47 44.001s27 20 45 28c8.66699 3.33301 17.334 6.16602 26.001 8.49902s16.334 3.5 23.001 3.5c6 0 9 2.33301 9 7c0 4 -4.33301 6 -13 6
c-5.33301 0 -12.5 -0.166992 -21.5 -0.5s-18.167 -0.5 -27.5 -0.5c-8.66699 0 -16.5 -0.166992 -23.5 -0.5s-11.167 -0.5 -12.5 -0.5c-10.667 0 -22 0.333008 -34 1s-22.667 1 -32 1c-6.66699 0 -10 -2 -10 -6s2.66699 -6.66699 8 -8c7.33301 -1.33301 11 -7 11 -17
c0 -7.33301 -4.83301 -16.166 -14.5 -26.499l-33.5 -34.5c-5.33301 -6 -13.833 -14.667 -25.5 -26l-39 -38.5l-44.5 -44.5l-43 -43l-34.5 -34.5c-9.66699 -9.66699 -15.5 -15.834 -17.5 -18.501h-4v51v80v50c0 13.333 0.166992 23.833 0.5 31.5s0.833008 14.834 1.5 21.501
c1.33301 15.333 4 26.333 8 33s11.667 11.334 23 14.001c5.33301 1.33301 9.33301 2 12 2h10c4.66699 0 7 2.33301 7 7s-4.66699 7 -14 7c-6.66699 0 -14.5 -0.166992 -23.5 -0.5s-17.833 -0.5 -26.5 -0.5s-16.5 -0.166992 -23.5 -0.5s-11.5 -0.5 -13.5 -0.5
c-1.33301 0 -5.33301 0.166992 -12 0.5s-15 0.5 -25 0.5c-9.33301 0 -19.5 0.166992 -30.5 0.5s-21.5 0.5 -31.5 0.5c-9.33301 0 -14 -2.33301 -14 -7s2.33301 -7 7 -7c4 0 9.16699 -0.166992 15.5 -0.5s11.166 -0.833008 14.499 -1.5c14.667 -2 24 -6.66699 28 -14
s6.66699 -18.333 8 -33c0.666992 -6.66699 1.16699 -13.834 1.5 -21.501s0.5 -18.167 0.5 -31.5v-50v-80v-150z" />
    <glyph glyph-name="l" unicode="l" 
d="M235 394l-0.00195312 80.002v50c0 13.333 0.166992 23.833 0.5 31.5s0.5 14.834 0.5 21.501c1.33301 15.333 3.83301 26.5 7.5 33.5s12.167 11.833 25.5 14.5c5.33301 0.666992 10.666 1.16699 15.999 1.5s9.66602 0.5 12.999 0.5c4.66699 0 7 2 7 6
c0 4.66699 -4.66699 7 -14 7c-6.66699 0 -15.334 -0.166992 -26.001 -0.5s-21 -0.5 -31 -0.5s-19 -0.166992 -27 -0.5s-12.333 -0.5 -13 -0.5c-1.33301 0 -5.33301 0.166992 -12 0.5s-15 0.5 -25 0.5c-9.33301 0 -19.666 0.166992 -30.999 0.5s-22 0.5 -32 0.5
c-9.33301 0 -14 -2.33301 -14 -7s2.33301 -7 7 -7c4 0 9.16699 -0.166992 15.5 -0.5s11.166 -0.833008 14.499 -1.5c14.667 -2 24 -6.66699 28 -14s6.66699 -18.333 8 -33c0.666992 -6.66699 1.16699 -13.834 1.5 -21.501s0.5 -18.167 0.5 -31.5v-50v-80v-150
c0 -41.333 -0.166992 -78 -0.5 -110s-1.83301 -56.667 -4.5 -74c-2 -12.667 -4.16699 -22.834 -6.5 -30.501s-7.83301 -12.5 -16.5 -14.5c-4 -1.33301 -8.5 -2.33301 -13.5 -3s-9.5 -1 -13.5 -1c-4.66699 0 -7 -2.33301 -7 -7s4.66699 -7 14 -7
c7.33301 0 15.333 0.166992 24 0.5s17.667 0.833008 27 1.5c8.66699 0.666992 16.334 1 23.001 1h13c13.333 0 27.666 -0.166992 42.999 -0.5s33 -0.833008 53 -1.5c40.667 -2 91.667 -3 153 -3c12 0 21.333 0.333008 28 1s11.834 1.66699 15.501 3s6.33398 3.5 8.00098 6.5
s3.16699 7.16699 4.5 12.5c2 6 3.66699 13.5 5 22.5l4 26c1.33301 8.33301 2.33301 16 3 23s1 11.5 1 13.5c0 8.66699 -2 13 -6 13c-4.66699 0 -7.66699 -3.66699 -9 -11c-1.33301 -8.66699 -3.83301 -17.167 -7.5 -25.5s-8.16699 -15.833 -13.5 -22.5
c-10.667 -12.667 -25.167 -20.167 -43.5 -22.5s-39.166 -3.5 -62.499 -3.5c-34.667 0 -61 1.5 -79 4.5s-30.667 8.16699 -38 15.5c-4 4 -7.16699 10.333 -9.5 19s-4.16602 20.5 -5.49902 35.5s-2.16602 33.667 -2.49902 56s-0.5 49.166 -0.5 80.499v152z" />
    <glyph glyph-name="m" unicode="m" horiz-adv-x="924" 
d="M754 629c-2 15.333 -6.33398 22.9951 -13.001 22.9951c-4.66699 0 -9.33398 -4.66699 -14.001 -14l-256 -527l-266 528c-4.66699 8.66699 -10.667 13 -18 13c-5.33301 0 -8.66602 -5 -9.99902 -15l-64 -555c-2 -16 -4.5 -30.667 -7.5 -44s-11.833 -21.333 -26.5 -24
c-6.66699 -1.33301 -11.834 -2.16602 -15.501 -2.49902s-7.16699 -0.5 -10.5 -0.5c-6 0 -9 -2 -9 -6c0 -5.33301 5 -8 15 -8c6 0 12.833 0.166992 20.5 0.5l22.5 1c7.33301 0.333008 13.833 0.666016 19.5 0.999023s9.5 0.5 11.5 0.5s5.83301 -0.166992 11.5 -0.5
s12.334 -0.666016 20.001 -0.999023s16 -0.666016 25 -0.999023s17.5 -0.5 25.5 -0.5c10.667 0 16 2.66699 16 8c0 4 -2.33301 6 -7 6c-3.33301 0 -8 0.333008 -14 1s-12.667 2 -20 4c-14 3.33301 -21 11.333 -21 24v22c0 7.33301 0.333008 14.333 1 21l34 384h4l20.5 -43.5
l31.5 -65.5l33.5 -69l26.5 -54c5.33301 -11.333 12.666 -26 21.999 -44l29 -56l29 -55l23 -42c8.66699 -15.333 14.834 -25.666 18.501 -30.999s7.5 -8 11.5 -8s7.83301 2.83301 11.5 8.5s10.167 17.834 19.5 36.501l212 434h2l42 -430
c1.33301 -8 1.66602 -14.833 0.999023 -20.5s-2.33398 -8.83398 -5.00098 -9.50098c-4 -1.33301 -6 -3.66602 -6 -6.99902c0 -2 1.5 -3.66699 4.5 -5s9.83301 -2.66602 20.5 -3.99902c8 -0.666992 19.333 -1.33398 34 -2.00098s29.834 -1.16699 45.501 -1.5
s30 -0.666016 43 -0.999023s22.167 -0.5 27.5 -0.5s9.66602 0.666992 12.999 2s5 3.33301 5 6c0 4 -2.33301 6 -7 6s-12.167 0.333008 -22.5 1s-21.833 3 -34.5 7c-9.33301 2.66699 -16.666 7.5 -21.999 14.5s-9.66602 14.667 -12.999 23s-5.66602 17 -6.99902 26
s-2.33301 17.167 -3 24.5z" />
    <glyph glyph-name="n" unicode="n" horiz-adv-x="833" 
d="M182 514l32.5 -35.0029l53.5 -56.5l67.5 -71l74.5 -78.5l74 -75.5l72 -73l56.5 -56l26.5 -25.5l29.5 -27c7.66699 -6.66699 14 -11.834 19 -15.501s8.83301 -6.16699 11.5 -7.5s5 -2 7 -2c1.33301 0 2.5 0.5 3.5 1.5s1.66699 3.66699 2 8s0.666016 10.5 0.999023 18.5
s0.5 19 0.5 33l2 498c0 12.667 0.333008 23.334 1 32.001s2 15.834 4 21.501s5 10.167 9 13.5s9.66699 5.66602 17 6.99902c5.33301 1.33301 9.66602 2 12.999 2h8c3.33301 0 5.83301 1 7.5 3s2.5 3.66699 2.5 5c0 4 -5.33301 6 -16 6c-18 0 -33.667 -0.333008 -47 -1
s-22.666 -1 -27.999 -1s-17 0.333008 -35 1s-37 1 -57 1c-11.333 0 -17 -2 -17 -6c0 -1.33301 0.333008 -3 1 -5s2.66699 -3 6 -3s9.33301 -0.333008 18 -1s17 -1.66699 25 -3c13.333 -2.66699 22 -9.66699 26 -21s6.33301 -30.666 7 -57.999l9 -426l-31.5 33l-50 53
l-61 64.5l-65.5 68.5l-99 102l-86 90l-63 66.5l-30 31.5l-16.5 16.5c-6.33301 6.33301 -12.166 9.5 -17.499 9.5c-3.33301 0 -6.16602 -2.83301 -8.49902 -8.5s-3.5 -17.167 -3.5 -34.5v-487c0 -19.333 -0.333008 -35.5 -1 -48.5s-1.83398 -23.5 -3.50098 -31.5
s-4.16699 -14 -7.5 -18s-7.66602 -6.66699 -12.999 -8c-6.66699 -2 -13.5 -3.33301 -20.5 -4s-12.167 -1 -15.5 -1c-4.66699 0 -7 -2.33301 -7 -7s4.66699 -7 14 -7c20 0 38.167 0.5 54.5 1.5s26.5 1.5 30.5 1.5s14.167 -0.5 30.5 -1.5s37.166 -1.5 62.499 -1.5
c10.667 0 16 2.33301 16 7s-2.33301 7 -7 7c-4 0 -10.333 0.333008 -19 1s-17 2 -25 4c-6 1.33301 -11 3.83301 -15 7.5s-7.33301 9.33398 -10 17.001s-4.66699 17.334 -6 29.001s-2.33301 26.167 -3 43.5z" />
    <glyph glyph-name="o" unicode="o" horiz-adv-x="808" 
d="M55 320c0 -38 6.66504 -76.8311 19.998 -116.498s34 -75.667 62 -108s63.667 -58.666 107 -78.999s95 -30.5 155 -30.5c52.667 0 100.834 9.16699 144.501 27.5s80.834 43.166 111.501 74.499s54.5 68.166 71.5 110.499s25.5 87.166 25.5 134.499
c0 49.333 -8.83301 93.666 -26.5 132.999s-42 72.833 -73 100.5s-67.833 48.834 -110.5 63.501s-88.667 22 -138 22c-60.667 0 -113 -10.833 -157 -32.5s-80.167 -49 -108.5 -82s-49.333 -69 -63 -108s-20.5 -75.5 -20.5 -109.5zM145.998 343.002
c0 46 6.33301 86.334 19 121.001s30.167 63.5 52.5 86.5s49 40.333 80 52s64.833 17.5 101.5 17.5c34.667 0 67.834 -6.66699 99.501 -20s59.667 -33 84 -59s43.666 -58.5 57.999 -97.5s21.5 -83.833 21.5 -134.5c0 -61.333 -8.66699 -110.833 -26 -148.5
s-38.5 -66.834 -63.5 -87.501s-51 -34.5 -78 -41.5s-50.5 -10.5 -70.5 -10.5c-40 0 -76.833 7.5 -110.5 22.5s-63 36.5 -88 64.5s-44.5 61.833 -58.5 101.5s-21 84.167 -21 133.5z" />
    <glyph glyph-name="p" unicode="p" horiz-adv-x="586" 
d="M155 244c0 -41.333 -0.167969 -78 -0.500977 -110s-1.83301 -56.667 -4.5 -74c-2 -12.667 -4.16699 -22.834 -6.5 -30.501s-7.83301 -12.5 -16.5 -14.5c-4 -1.33301 -8.5 -2.33301 -13.5 -3s-9.5 -1 -13.5 -1c-4.66699 0 -7 -2.33301 -7 -7s4.66699 -7 14 -7
c6.66699 0 14.834 0.166992 24.501 0.5l28 1c9 0.333008 16.833 0.666016 23.5 0.999023s10.334 0.5 11.001 0.5s4.66699 -0.166992 12 -0.5s16.166 -0.666016 26.499 -0.999023s21.833 -0.666016 34.5 -0.999023s25 -0.5 37 -0.5c9.33301 0 14 2.33301 14 7
s-2.33301 7 -7 7c-4 0 -10 0.333008 -18 1s-15 1.66699 -21 3c-13.333 2 -22.166 6.83301 -26.499 14.5s-7.16602 17.834 -8.49902 30.501c-2 17.333 -3.16699 42 -3.5 74s-0.5 68.667 -0.5 110v346c0 10 2.33301 15.333 7 16c4.66699 1.33301 12.167 2.66602 22.5 3.99902
s19.166 2 26.499 2h20c9.33301 0 19.333 -1.16699 30 -3.5s22 -6.33301 34 -12s23.667 -14.167 35 -25.5c12 -11.333 21.333 -23.166 28 -35.499s11.667 -24.333 15 -36s5.33301 -22.5 6 -32.5s1 -18.333 1 -25c0 -19.333 -4 -37.333 -12 -54s-19.333 -31.167 -34 -43.5
s-31.834 -22 -51.501 -29s-41.5 -10.5 -65.5 -10.5c-9.33301 0 -15.5 -0.666992 -18.5 -2s-4.5 -3.66602 -4.5 -6.99902c0 -2 1 -3.83301 3 -5.5s4 -2.5 6 -2.5c2.66699 -0.666992 6.66699 -1 12 -1h13c34 0 64.833 4.83301 92.5 14.5s51.5 23.334 71.5 41.001
s35.5 39 46.5 64s16.5 52.833 16.5 83.5c0 23.333 -4.83301 43.833 -14.5 61.5s-19.5 31.167 -29.5 40.5c-4 3.33301 -9.66699 7.66602 -17 12.999s-17.5 10.666 -30.5 15.999s-29.333 9.83301 -49 13.5s-43.5 5.5 -71.5 5.5c-10 0 -21.167 -0.166992 -33.5 -0.5
s-24.5 -0.5 -36.5 -0.5s-23 -0.166992 -33 -0.5s-17.333 -0.5 -22 -0.5c-2 0 -6.5 0.166992 -13.5 0.5s-15.5 0.5 -25.5 0.5c-9.33301 0 -19.666 0.166992 -30.999 0.5s-22 0.5 -32 0.5c-9.33301 0 -14 -2.33301 -14 -7s2.33301 -7 7 -7c4 0 9.16699 -0.166992 15.5 -0.5
s11.166 -0.833008 14.499 -1.5c14.667 -2 24 -6.66699 28 -14s6.66699 -18.333 8 -33c0.666992 -6.66699 1.16699 -13.834 1.5 -21.501s0.5 -18.167 0.5 -31.5v-50v-80v-150z" />
    <glyph glyph-name="q" unicode="q" horiz-adv-x="810" 
d="M684 -67c71.333 -38.667 136.329 -67 194.996 -85s115 -27 169 -27c32.667 0 63.167 2 91.5 6s54.5 9 78.5 15s45.167 12.5 63.5 19.5s33.833 13.167 46.5 18.5c4.66699 2 7 5 7 9c0 1.33301 -0.5 2.66602 -1.5 3.99902s-2.16699 2 -3.5 2c-2.66699 0 -7 -1 -13 -3
c-30.667 -11.333 -61.5 -19.666 -92.5 -24.999s-57.5 -8 -79.5 -8c-11.333 0 -27.833 0.833008 -49.5 2.5s-48.167 5.66699 -79.5 12s-67.166 16.166 -107.499 29.499s-84.5 32 -132.5 56l-180 89c14.667 8.66699 31 21.5 49 38.5s34.833 37.5 50.5 61.5
s28.834 51.5 39.501 82.5s16 65.167 16 102.5c0 49.333 -8.83301 93.666 -26.5 132.999s-42 72.833 -73 100.5s-67.833 48.834 -110.5 63.501s-88.667 22 -138 22c-60.667 0 -113 -10.833 -157 -32.5s-80.167 -49 -108.5 -82s-49.333 -69 -63 -108s-20.5 -75.5 -20.5 -109.5
c0 -38 6.5 -76.833 19.5 -116.5s33.5 -75.667 61.5 -108s63.833 -58.666 107.5 -78.999s95.834 -30.5 156.501 -30.5c12 0 24.333 0.666992 37 2s25.334 3 38.001 5s24.5 4.66699 35.5 8s20.5 7 28.5 11zM143.996 343c0 46.667 6.33398 87.3311 19.001 121.998
s30.167 63.5 52.5 86.5s49 40.167 80 51.5s64.833 17 101.5 17c34.667 0 68 -6.66699 100 -20s60.167 -33.166 84.5 -59.499s43.666 -58.833 57.999 -97.5s21.5 -83.334 21.5 -134.001c0 -40.667 -4 -76.167 -12 -106.5s-18.667 -56.166 -32 -77.499
s-28.5 -38.666 -45.5 -51.999s-34.333 -23.833 -52 -31.5s-35 -13 -52 -16s-32.167 -4.5 -45.5 -4.5c-40 0 -76.833 7.5 -110.5 22.5s-63 36.5 -88 64.5s-44.5 61.833 -58.5 101.5s-21 84.167 -21 133.5z" />
    <glyph glyph-name="r" unicode="r" horiz-adv-x="672" 
d="M155 244c0 -41.333 -0.169922 -77.999 -0.50293 -109.999s-1.83301 -56.667 -4.5 -74c-2 -12.667 -4.16699 -22.834 -6.5 -30.501s-7.83301 -12.5 -16.5 -14.5c-4 -1.33301 -8.5 -2.33301 -13.5 -3s-9.5 -1 -13.5 -1c-4.66699 0 -7 -2.33301 -7 -7s4.66699 -7 14 -7
c6.66699 0 15 0.166992 25 0.5s19.5 0.666016 28.5 0.999023s16.833 0.666016 23.5 0.999023l10 0.5c0.666992 0 4.5 -0.166992 11.5 -0.5s15.667 -0.666016 26 -0.999023s21.666 -0.666016 33.999 -0.999023s24.5 -0.5 36.5 -0.5c9.33301 0 14 2.33301 14 7
s-2.33301 7 -7 7c-4 0 -10 0.333008 -18 1s-15 1.66699 -21 3c-13.333 2 -22.166 6.83301 -26.499 14.5s-7.16602 17.834 -8.49902 30.501c-2 17.333 -3.16699 41.833 -3.5 73.5s-0.5 68.167 -0.5 109.5v20c0 4.66699 2 7 6 7l112 -2c4.66699 0 8.66699 -1.66699 12 -5
l17.5 -23l23 -30.5l26.5 -35l28 -35.5l64.5 -79c17.667 -20.667 36.167 -36 55.5 -46c11.333 -6 23.5 -10.333 36.5 -13s32.167 -4 57.5 -4h55c8 0 13.5 0.5 16.5 1.5s4.5 2.83301 4.5 5.5c0 4.66699 -2.66699 7 -8 7c-2.66699 0 -6.33398 0.166992 -11.001 0.5
s-11.334 1.16602 -20.001 2.49902c-11.333 1.33301 -24.666 5.5 -39.999 12.5s-34.666 22.5 -57.999 46.5c-25.333 26.667 -53.333 58.667 -84 96l-100 124c40.667 34.667 68.834 67.834 84.501 99.501s23.5 63.167 23.5 94.5c0 14.667 -2.16699 28.167 -6.5 40.5
s-9.66602 23.5 -15.999 33.5s-13 18.5 -20 25.5s-13.167 12.5 -18.5 16.5c-23.333 16 -49.5 26.167 -78.5 30.5s-57.5 6.5 -85.5 6.5c-6.66699 0 -15.834 -0.166992 -27.501 -0.5s-23.167 -0.5 -34.5 -0.5s-21.666 -0.166992 -30.999 -0.5s-15 -0.5 -17 -0.5
c-1.33301 0 -5.66602 0.166992 -12.999 0.5s-16 0.5 -26 0.5s-20.833 0.166992 -32.5 0.5s-22.5 0.5 -32.5 0.5c-9.33301 0 -14 -2.33301 -14 -7s2.33301 -7 7 -7c4 0 9.16699 -0.166992 15.5 -0.5s11.166 -0.833008 14.499 -1.5c14.667 -2 24 -6.66699 28 -14
s6.66699 -18.333 8 -33c0.666992 -6.66699 1.16699 -13.834 1.5 -21.501s0.5 -18.167 0.5 -31.5v-50v-80v-150zM230.997 595.001c0 4 2.33301 7.33203 7 9.99902c4.66699 1.33301 13 2.5 25 3.5s24.667 1.5 38 1.5c47.333 0 84.5 -14.5 111.5 -43.5
s40.5 -70.167 40.5 -123.5c0 -32.667 -5 -60 -15 -82s-22.667 -38 -38 -48c-10.667 -7.33301 -21.667 -11.666 -33 -12.999s-22.333 -2 -33 -2c-10 0 -20 0.333008 -30 1s-19.5 1.66699 -28.5 3s-16.833 2.66602 -23.5 3.99902s-11.667 3 -15 5
c-4 2.66699 -6 6.33398 -6 11.001v273z" />
    <glyph glyph-name="s" unicode="s" horiz-adv-x="524" 
d="M209 -14c24 0 48.6592 1.99902 73.9922 5.99902s47.333 12 66 24c31.333 20.667 52.833 43.667 64.5 69s17.5 50.666 17.5 75.999c0 18 -2.5 35.5 -7.5 52.5s-13.167 33.667 -24.5 50s-26.166 33 -44.499 50s-40.833 34.5 -67.5 52.5l-25 17
c-22 14.667 -40.167 27.834 -54.5 39.501s-26 23 -35 34s-15.333 22.167 -19 33.5s-5.5 23.666 -5.5 36.999c0 30 11.5 52.833 34.5 68.5s50.5 23.5 82.5 23.5c20 0 36.833 -1.66699 50.5 -5s25 -7.33301 34 -12s15.833 -9.33398 20.5 -14.001s7.66699 -8.33398 9 -11.001
c2.66699 -4.66699 5.33398 -11.5 8.00098 -20.5s4.33398 -16.167 5.00098 -21.5c0.666992 -3.33301 1.33398 -6 2.00098 -8s2.66699 -3 6 -3c4.66699 0 7 6.33301 7 19c0 29.333 0.666992 51.166 2 65.499s2 22.5 2 24.5c0 4 -3 6 -9 6
c-3.33301 0 -7.16602 0.166992 -11.499 0.5s-10.833 1.5 -19.5 3.5c-10.667 2.66699 -24.167 5 -40.5 7s-33.166 3 -50.499 3c-29.333 0 -55.833 -3.66699 -79.5 -11s-44.167 -17.833 -61.5 -31.5s-30.666 -30.5 -39.999 -50.5s-14 -42.333 -14 -67
c0 -29.333 9.16699 -58.166 27.5 -86.499s51.166 -60.166 98.499 -95.499l40 -30l50 -39c14 -11.333 25.5 -22.5 34.5 -33.5s15.667 -22.5 20 -34.5s6.5 -25.667 6.5 -41c0 -32 -11 -58.833 -33 -80.5s-55 -32.5 -99 -32.5c-14.667 0 -29.5 1.5 -44.5 4.5
s-29 7.83301 -42 14.5s-24.167 15.334 -33.5 26.001s-15.666 23.667 -18.999 39c-1.33301 6 -2.16602 11.833 -2.49902 17.5s-0.5 10.167 -0.5 13.5c0 6.66699 -2.66699 10 -8 10c-4.66699 0 -7 -4.66699 -7 -14l-3 -34.5c-1.33301 -15.667 -2 -34.167 -2 -55.5
c0 -11.333 0.666992 -18.666 2 -21.999s5 -6.66602 11 -9.99902c18 -8.66699 38.667 -14.667 62 -18s45.333 -5 66 -5z" />
    <glyph glyph-name="t" unicode="t" horiz-adv-x="610" 
d="M347 601l109.998 -2.00488c20.667 -0.666992 37.834 -2.16699 51.501 -4.5s24.334 -5.66602 32.001 -9.99902s13.167 -9.16602 16.5 -14.499s5.33301 -11.333 6 -18l1 -9c0.666992 -6 1.5 -10 2.5 -12s2.5 -3 4.5 -3c5.33301 0 8 3.66699 8 11
c0 2.66699 0.166992 8 0.5 16s0.666016 16.833 0.999023 26.5l1 29.5c0.333008 10 0.5 18.333 0.5 25s-1.33301 10 -4 10c-2 0 -5 -0.333008 -9 -1s-9.33301 -1.66699 -16 -3c-7.33301 -1.33301 -16 -2.33301 -26 -3s-22.333 -1 -37 -1h-332c-5.33301 0 -15 0.333008 -29 1
s-27.333 1.66699 -40 3c-12 1.33301 -20.667 3.33301 -26 6s-9.66602 4 -12.999 4c-1.33301 0 -2.83301 -2 -4.5 -6s-3.16699 -7.33301 -4.5 -10c0 -2 -1 -7.5 -3 -16.5l-6.5 -29l-6.5 -29.5c-2 -9.33301 -3 -15 -3 -17c0 -2.66699 0.666992 -4.5 2 -5.5
s2.66602 -1.5 3.99902 -1.5c4.66699 0 7.66699 2.66699 9 8l4 10.5c1.33301 3.66699 4.66602 9.16699 9.99902 16.5c6.66699 10 16.167 16.833 28.5 20.5s32.5 5.83398 60.5 6.50098l127 2v-357c0 -41.333 -0.166992 -78 -0.5 -110s-1.5 -56.667 -3.5 -74
c-1.33301 -12.667 -3.66602 -23 -6.99902 -31s-9.66602 -13 -18.999 -15c-4 -1.33301 -8.33301 -2.33301 -13 -3s-9 -1 -13 -1c-4.66699 0 -7 -2 -7 -6c0 -4.66699 4.66699 -7 14 -7c6.66699 0 14.834 0.166992 24.501 0.5l29 1c9.66699 0.333008 18 0.666016 25 0.999023
s11.167 0.5 12.5 0.5s5.5 -0.166992 12.5 -0.5s15.667 -0.666016 26 -0.999023s21.666 -0.666016 33.999 -0.999023s24.5 -0.5 36.5 -0.5c9.33301 0 14 2.33301 14 7s-2.33301 7 -7 7c-4 0 -10.167 0.333008 -18.5 1s-15.5 1.66699 -21.5 3c-13.333 2 -22 6.83301 -26 14.5
s-6.66699 17.834 -8 30.501c-2 17.333 -3.16699 42 -3.5 74s-0.5 68.667 -0.5 110v357z" />
    <glyph glyph-name="u" unicode="u" horiz-adv-x="732" 
d="M110 269c0 -31.333 1.99902 -58.665 5.99902 -81.998s9.5 -43.666 16.5 -60.999s15.167 -32.5 24.5 -45.5s19.333 -24.5 30 -34.5c15.333 -14.667 32.166 -26 50.499 -34s36.166 -14 53.499 -18s33 -6.33301 47 -7s24.667 -1 32 -1c12.667 0 26.5 0.666992 41.5 2
s30.333 4.16602 46 8.49902s31.667 10.5 48 18.5s32.5 19 48.5 33c17.333 14.667 31.333 32 42 52s19 41.167 25 63.5s10 45.333 12 69s3 47.167 3 70.5v91v80v50v31c0 8 0.333008 15.333 1 22c1.33301 14 3.83301 24.667 7.5 32s11.5 12.333 23.5 15
c5.33301 1.33301 9.33301 2 12 2h10c4.66699 0 7 2.33301 7 7s-4.66699 7 -14 7c-13.333 0 -28.166 -0.333008 -44.499 -1s-26.166 -1 -29.499 -1c-1.33301 0 -5.16602 0.166992 -11.499 0.5s-14.166 0.5 -23.499 0.5c-8.66699 0 -18.334 0.166992 -29.001 0.5
s-21 0.5 -31 0.5c-9.33301 0 -14 -2.33301 -14 -7s2.33301 -7 7 -7c4 0 9.16699 -0.166992 15.5 -0.5s11.166 -0.833008 14.499 -1.5c14.667 -2 24 -7 28 -15s6.33301 -18.667 7 -32c0 -6.66699 0.166992 -13.834 0.5 -21.501s0.666016 -18 0.999023 -31
s0.5 -29.833 0.5 -50.5v-80v-107c0 -44 -3.16699 -83.167 -9.5 -117.5s-19.833 -63.833 -40.5 -88.5c-15.333 -18 -35 -32.5 -59 -43.5s-49.667 -16.5 -77 -16.5c-25.333 0 -48.166 2.83301 -68.499 8.5s-41.166 18.167 -62.499 37.5c-9.33301 8.66699 -18 18.5 -26 29.5
s-14.833 24.667 -20.5 41s-10.167 35.666 -13.5 57.999s-5 48.833 -5 79.5v119v80v50c0 13.333 0.166992 23.833 0.5 31.5s0.833008 14.834 1.5 21.501c1.33301 14 3.83301 24.833 7.5 32.5s11.167 12.5 22.5 14.5c5.33301 1.33301 9.33301 2 12 2h10
c5.33301 0 8 2.33301 8 7s-5 7 -15 7c-6.66699 0 -14.667 -0.166992 -24 -0.5s-18.666 -0.5 -27.999 -0.5c-8.66699 0 -16.5 -0.166992 -23.5 -0.5s-11.5 -0.5 -13.5 -0.5s-6.5 0.166992 -13.5 0.5s-15.5 0.5 -25.5 0.5c-9.33301 0 -19.5 0.166992 -30.5 0.5
s-21.5 0.5 -31.5 0.5c-9.33301 0 -14 -2.33301 -14 -7s2.33301 -7 7 -7c4 0 9.16699 -0.166992 15.5 -0.5s11.166 -0.833008 14.499 -1.5c14.667 -2 24 -7 28 -15s6.66699 -18.667 8 -32c0.666992 -6.66699 1.16699 -13.834 1.5 -21.501s0.5 -18.167 0.5 -31.5v-50v-80v-125
z" />
    <glyph glyph-name="v" unicode="v" horiz-adv-x="653" 
d="M182 536l-17.002 44.5c-4.66699 12.333 -7 21.166 -7 26.499c0 3.33301 0.5 6.16602 1.5 8.49902s3.83301 4.5 8.5 6.5c4 1.33301 9 2.33301 15 3s11.667 1 17 1c6 0 9 2.66699 9 8c0 4 -8 6 -24 6c-17.333 0 -34.166 -0.333008 -50.499 -1s-26.833 -1 -31.5 -1
c-2.66699 0 -7.66699 0.166992 -15 0.5s-15.666 0.5 -24.999 0.5s-19.5 0.166992 -30.5 0.5s-21.833 0.5 -32.5 0.5c-15.333 0 -23 -2 -23 -6c0 -1.33301 0.5 -3 1.5 -5s2.83301 -3 5.5 -3s7.16699 -0.166992 13.5 -0.5s13.166 -1.16602 20.499 -2.49902
c7.33301 -2 13.666 -4.16699 18.999 -6.5s10.333 -5.66602 15 -9.99902s9 -10.333 13 -18s8.66699 -17.5 14 -29.5l216 -521c8.66699 -20.667 15 -34.5 19 -41.5s8.66699 -10.5 14 -10.5c4.66699 0 9.16699 4.33301 13.5 13l24.5 51c10 21.333 24.5 54 43.5 98l69.5 160
l33 76.5l29 68.5l22.5 53.5l13.5 31.5c6 14.667 11.333 26.5 16 35.5s9 16.333 13 22s7.5 10 10.5 13s6.16699 5.5 9.5 7.5c8 5.33301 16.167 8.33301 24.5 9s14.166 1 17.499 1c6.66699 0 10 2.66699 10 8c0 4 -4.66699 6 -14 6c-13.333 0 -27.5 -0.333008 -42.5 -1
s-23.833 -1 -26.5 -1c-5.33301 0 -16.666 0.333008 -33.999 1s-34.666 1 -51.999 1c-13.333 0 -20 -2.33301 -20 -7s3.33301 -7 10 -7c5.33301 0 10.333 -0.166992 15 -0.5s9.66699 -1.16602 15 -2.49902c4.66699 -1.33301 7.83398 -3.83301 9.50098 -7.5
s2.5 -7.16699 2.5 -10.5s-0.833008 -7.83301 -2.5 -13.5l-5.5 -18.5c-3.33301 -10 -9 -25.833 -17 -47.5l-28 -75l-35.5 -90.5l-38.5 -94.5l-36 -88c-11.333 -27.667 -21.333 -50.834 -30 -69.501z" />
    <glyph glyph-name="w" unicode="w" horiz-adv-x="968" 
d="M530 597c-5.33301 14.667 -9.8291 25.0029 -13.4961 31.0029s-7.16699 9 -10.5 9c-2.66699 0 -5.66699 -2.16699 -9 -6.5s-8.33301 -15.166 -15 -32.499l-184 -475h-2c-2 6 -5.83301 18.667 -11.5 38l-20 69.5l-25 86l-25 87l-20.5 74.5c-6 22 -10.333 37.333 -13 46
c-5.33301 19.333 -9.5 36 -12.5 50s-4.5 23.667 -4.5 29s1.16699 9.33301 3.5 12s5.16602 4.66699 8.49902 6c5.33301 2.66699 11 4.16699 17 4.5s10.667 0.5 14 0.5c2 0 4 0.666992 6 2s3 3.33301 3 6c0 4 -5.33301 6 -16 6c-22 0 -41.833 -0.333008 -59.5 -1
s-28.5 -1 -32.5 -1c-4.66699 0 -17.334 0.333008 -38.001 1s-42.667 1 -66 1c-9.33301 0 -14 -2 -14 -6c0 -5.33301 2.66699 -8 8 -8c3.33301 0 9.33301 -0.333008 18 -1s16 -2 22 -4s11 -4.33301 15 -7s7.83301 -6.33398 11.5 -11.001s7 -10.667 10 -18
s6.16699 -16.666 9.5 -27.999l156 -504c4.66699 -14.667 8.66699 -26.334 12 -35.001s6.16602 -15.334 8.49902 -20.001s4.66602 -7.83398 6.99902 -9.50098s4.5 -2.5 6.5 -2.5c5.33301 0 10 3 14 9s9.66699 18 17 36l22.5 57l32 82l36.5 94.5l36.5 94.5l31.5 81l22 55
l172 -465c6 -16.667 11.167 -28.167 15.5 -34.5s8.83301 -9.5 13.5 -9.5c2.66699 0 5 0.833008 7 2.5s4.33301 5.16699 7 10.5s5.83398 12.666 9.50098 21.999l14.5 38c6 16 13.167 36.167 21.5 60.5l27 80l30.5 91l31 92l28 83.5c8.66699 26 16.334 48 23.001 66
c8.66699 23.333 17 43 25 59s18.667 26.333 32 31c5.33301 1.33301 11.333 2.33301 18 3s10.667 1 12 1c3.33301 0 5.5 1 6.5 3s1.5 4 1.5 6c0 3.33301 -4 5 -12 5c-6.66699 0 -13.834 -0.166992 -21.501 -0.5s-15.167 -0.5 -22.5 -0.5
c-6.66699 0 -12.5 -0.166992 -17.5 -0.5s-8.16699 -0.5 -9.5 -0.5c-4 0 -14.333 0.333008 -31 1s-36.334 1 -59.001 1c-10 0 -15 -2 -15 -6c0 -1.33301 0.666992 -3 2 -5s3.33301 -3 6 -3c20 0 32.833 -2.33301 38.5 -7s8.5 -10.667 8.5 -18
c0 -5.33301 -0.5 -11.5 -1.5 -18.5s-3.83301 -18.5 -8.5 -34.5l-19 -64.5l-24 -78.5l-26.5 -84l-25.5 -81l-22 -69c-6.66699 -20.667 -11.667 -36.667 -15 -48h-4z" />
    <glyph glyph-name="x" unicode="x" horiz-adv-x="611" 
d="M108 82c-14 -21.333 -26.1709 -36.834 -36.5039 -46.501s-22.166 -16.167 -35.499 -19.5c-14.667 -3.33301 -25.667 -5 -33 -5c-4.66699 0 -7 -2.66699 -7 -8c0 -4 2.66699 -6 8 -6c7.33301 0 15.333 0.166992 24 0.5s16.834 0.666016 24.501 0.999023
s14.334 0.666016 20.001 0.999023s9.5 0.5 11.5 0.5s6.66699 -0.166992 14 -0.5s15.5 -0.666016 24.5 -0.999023l27 -1c9 -0.333008 16.167 -0.5 21.5 -0.5c7.33301 0 11 2 11 6c0 5.33301 -2.66699 8 -8 8c-4 0 -9.33301 0.666992 -16 2c-9.33301 2 -14 6.66699 -14 14
c0 4.66699 0.833008 10.334 2.5 17.001s4.5 13.667 8.5 21l135 223l76.5 -126.5l72.5 -124.5c4 -7.33301 4.83301 -13 2.5 -17s-4.83301 -6.33301 -7.5 -7c-3.33301 -1.33301 -5 -3.66602 -5 -6.99902c0 -2 1.66699 -3.5 5 -4.5s10.666 -1.83301 21.999 -2.5
c24 -1.33301 47 -2 69 -2h75c8 0 12 2.33301 12 7s-2.33301 7 -7 7c-6.66699 0 -16.667 1.66699 -30 5s-23.166 8 -29.499 14s-13.166 13.667 -20.499 23c-3.33301 4 -9.83301 13.333 -19.5 28l-33.5 53l-40.5 66l-41 66l-33.5 54c-9.33301 15.333 -15.333 25 -18 29
l141 206c12.667 18.667 23.667 33.5 33 44.5s20.333 18.5 33 22.5c5.33301 1.33301 10.833 2.33301 16.5 3s10.167 1 13.5 1s5.66602 1 6.99902 3s2 3.66699 2 5c0 4 -4.66699 6 -14 6c-15.333 0 -30.5 -0.333008 -45.5 -1s-24.5 -1 -28.5 -1s-13.833 0.333008 -29.5 1
s-31.834 1 -48.501 1c-10 0 -15 -2 -15 -6c0 -5.33301 2.66699 -8 8 -8h10c4.66699 0 9.33398 -0.666992 14.001 -2c10 -3.33301 15 -8 15 -14c0 -5.33301 -0.666992 -10.166 -2 -14.499s-3.66602 -9.5 -6.99902 -15.5c-2 -4.66699 -8.5 -15.834 -19.5 -33.501l-37 -58.5
l-40.5 -62l-30 -44c-23.333 36.667 -43.833 70.834 -61.5 102.501l-54.5 98.5c-2.66699 4.66699 -4.83398 9.5 -6.50098 14.5s-2.5 9.5 -2.5 13.5c0 3.33301 0.833008 6.16602 2.5 8.49902s4.5 3.83301 8.5 4.5c3.33301 1.33301 7.33301 2 12 2h12c5.33301 0 8 2.66699 8 8
c0 2 -1 3.5 -3 4.5s-6 1.5 -12 1.5c-7.33301 0 -15.666 -0.166992 -24.999 -0.5s-18.333 -0.5 -27 -0.5c-8 0 -15.167 -0.166992 -21.5 -0.5s-10.5 -0.5 -12.5 -0.5s-7.16699 0.166992 -15.5 0.5s-18.166 0.5 -29.499 0.5c-10.667 0 -21.5 0.166992 -32.5 0.5
s-19.5 0.5 -25.5 0.5c-10 0 -15 -2 -15 -6c0 -1.33301 0.666992 -3 2 -5s3.33301 -3 6 -3s7.66699 -0.5 15 -1.5s14.666 -2.5 21.999 -4.5c15.333 -4.66699 27.833 -12.667 37.5 -24s19.5 -25.333 29.5 -42l140 -228z" />
    <glyph glyph-name="y" unicode="y" horiz-adv-x="576" 
d="M255 145l-0.00585938 -35.001c0 -16 -0.666992 -32.667 -2 -50c-1.33301 -12.667 -3.66602 -22.834 -6.99902 -30.501s-9.66602 -12.5 -18.999 -14.5c-4 -1.33301 -8.33301 -2.33301 -13 -3s-9 -1 -13 -1c-4.66699 0 -7 -2.33301 -7 -7s4.66699 -7 14 -7
c6.66699 0 14.667 0.166992 24 0.5l27.5 1c9 0.333008 16.667 0.666016 23 0.999023s10.166 0.5 11.499 0.5s5.5 -0.166992 12.5 -0.5s15.833 -0.666016 26.5 -0.999023s22.334 -0.666016 35.001 -0.999023s25 -0.5 37 -0.5c9.33301 0 14 2.33301 14 7s-2.33301 7 -7 7
c-4 0 -10.167 0.333008 -18.5 1s-15.5 1.66699 -21.5 3c-13.333 2 -22 6.83301 -26 14.5s-6.66699 17.834 -8 30.501c-1.33301 17.333 -2.16602 34 -2.49902 50s-0.5 27.667 -0.5 35v73v41c0 14 3.66699 28.667 11 44c2.66699 6 8.16699 16 16.5 30l29 48.5l35.5 57.5
l36.5 57l32 47.5c9.66699 13.667 16.834 23.5 21.501 29.5c9.33301 11.333 16.833 19.833 22.5 25.5s12.834 11.167 21.501 16.5c7.33301 4 14.666 6.83301 21.999 8.5s13.666 2.5 18.999 2.5c3.33301 0 6 1 8 3s3 4 3 6c0 3.33301 -3.66699 5 -11 5
c-4 0 -10.5 -0.166992 -19.5 -0.5s-18.167 -0.5 -27.5 -0.5s-17.833 -0.166992 -25.5 -0.5s-12.167 -0.5 -13.5 -0.5c-3.33301 0 -11.5 0.333008 -24.5 1s-25.167 1 -36.5 1c-9.33301 0 -14 -1.66699 -14 -5c0 -4.66699 4.33301 -8 13 -10c9.33301 -2.66699 14 -10 14 -22
c0 -5.33301 -1.16699 -11.666 -3.5 -18.999s-6.16602 -15.666 -11.499 -24.999l-15 -25.5l-25.5 -43l-31 -51.5l-31 -52l-26 -45c-7.66699 -13.333 -12.834 -23 -15.501 -29l-160 265c-3.33301 5.33301 -6.16602 10.666 -8.49902 15.999s-3.5 11 -3.5 17
s3.66699 10.667 11 14c9.33301 3.33301 14 6.33301 14 9c0 2 -0.666992 3.5 -2 4.5s-4.66602 1.5 -9.99902 1.5c-17.333 0 -33.5 -0.333008 -48.5 -1s-24.167 -1 -27.5 -1c-1.33301 0 -5.66602 0.166992 -12.999 0.5s-16 0.5 -26 0.5
c-9.33301 0 -18.666 0.166992 -27.999 0.5s-16 0.5 -20 0.5c-7.33301 0 -11 -2 -11 -6c0 -5.33301 3 -8 9 -8c3.33301 0 8.66602 -1 15.999 -3s14.333 -5 21 -9c8 -5.33301 17 -13 27 -23s20.333 -23 31 -39l21 -33l31 -48.5l34.5 -54l32.5 -51.5l25 -40.5
c6.66699 -11 10.667 -17.5 12 -19.5c6.66699 -12 11.5 -23.833 14.5 -35.5s4.5 -28.834 4.5 -51.501v-73z" />
    <glyph glyph-name="z" unicode="z" horiz-adv-x="609" 
d="M172 37l196.002 288.503l193 290.5c2 2.66699 3.33301 5.33398 4 8.00098s1 5 1 7c0 4.66699 -6 7 -18 7h-246h-56c-23.333 0 -56 0.666992 -98 2c-11.333 0.666992 -19.333 1.83398 -24 3.50098s-9 2.5 -13 2.5c-4.66699 0 -7.33398 -5.33301 -8.00098 -16
c-1.33301 -6.66699 -3 -15.834 -5 -27.501l-6 -35c-2 -11.667 -3.66699 -22.334 -5 -32.001s-2 -15.834 -2 -18.501c0 -7.33301 1.66699 -11 5 -11c2.66699 0 5 0.833008 7 2.5s3.66699 5.83398 5 12.501c1.33301 10 6.16602 21.667 14.499 35s20.166 24 35.499 32
c14 7.33301 32.667 11.5 56 12.5s46.333 1.5 69 1.5h186l-187 -284l-196 -285c-5.33301 -8 -8.66602 -13.833 -9.99902 -17.5s-2 -6.5 -2 -8.5c0 -4.66699 5.33301 -7 16 -7c77.333 0 153.166 -0.666992 227.499 -2s148.5 -2 222.5 -2c10 0 16.167 1 18.5 3
s4.83301 8.33301 7.5 19l5 20.5c2 8.33301 4 17.166 6 26.499s3.66699 18.5 5 27.5s2 16.833 2 23.5c0 8 -0.5 13.167 -1.5 15.5s-2.83301 3.5 -5.5 3.5c-4.66699 0 -8 -4.33301 -10 -13c-1.33301 -6 -3.5 -13.833 -6.5 -23.5s-6.83301 -17.167 -11.5 -22.5
c-5.33301 -6 -11 -11.333 -17 -16s-14 -8.83398 -24 -12.501s-22.667 -6.33398 -38 -8.00098s-34.666 -2.5 -57.999 -2.5h-234z" />
    <glyph glyph-name="braceleft" unicode="{" horiz-adv-x="360" 
d="M134 349c10.667 4 22.167 13.3389 34.5 28.0059s20.833 30.667 25.5 48c2.66699 10 4.66699 20.833 6 32.5s2.16602 24.667 2.49902 39s0.333008 30.333 0 48s-0.5 37.834 -0.5 60.501c0 21.333 3 39.5 9 54.5s13.333 27.5 22 37.5s17.5 17.5 26.5 22.5
s16.5 8.5 22.5 10.5c10.667 3.33301 16 6.33301 16 9c0 3.33301 -4.33301 5 -13 5c-10.667 0 -25.167 -3.33301 -43.5 -10s-35.166 -17 -50.499 -31c-9.33301 -8.66699 -18 -18 -26 -28s-14.833 -21.833 -20.5 -35.5s-10 -29.5 -13 -47.5s-4.5 -39.667 -4.5 -65
c0 -12 1.66699 -28.167 5 -48.5s5 -39.833 5 -58.5c0 -15.333 -1.16699 -27.333 -3.5 -36s-6.16602 -15.334 -11.499 -20.001s-12.5 -7.66699 -21.5 -9s-19.833 -2.33301 -32.5 -3c-5.33301 -0.666992 -8.66602 -1.5 -9.99902 -2.5s-2 -3.16699 -2 -6.5
c0 -2.66699 0.666992 -4.33398 2 -5.00098s4.66602 -1.66699 9.99902 -3c14 -2.66699 26 -5.33398 36 -8.00098s17.667 -8.33398 23 -17.001c4.66699 -7.33301 7 -18 7 -32c0 -16.667 -1.16699 -34.834 -3.5 -54.501s-3.5 -37.167 -3.5 -52.5c0 -35.333 1.5 -65.5 4.5 -90.5
s6.83301 -46.167 11.5 -63.5s10 -31.833 16 -43.5s12.333 -21.834 19 -30.501c9.33301 -12.667 19 -23.334 29 -32.001s19.667 -15.5 29 -20.5s18 -8.66699 26 -11s14.333 -3.5 19 -3.5c7.33301 0 12.166 0.333008 14.499 1s3.5 2 3.5 4s-1.33301 3.83301 -4 5.5
s-8.66699 4.16699 -18 7.5c-8.66699 3.33301 -17.334 9.16602 -26.001 17.499s-16.667 21 -24 38s-13.333 39.167 -18 66.5s-7 62 -7 104v52c0 14.667 -0.333008 27.834 -1 39.501s-1.66699 22 -3 31s-3.33301 18.167 -6 27.5c-5.33301 20 -13.666 36.833 -24.999 50.5
s-22.333 23.167 -33 28.5z" />
    <glyph glyph-name="bar" unicode="|" horiz-adv-x="510" 
d="M282 -250v1000h-54v-1000h54z" />
    <glyph glyph-name="braceright" unicode="}" horiz-adv-x="360" 
d="M226 349c-10.667 -5.33301 -21.667 -14.8359 -33 -28.5029s-19.666 -30.5 -24.999 -50.5c-3.33301 -10.667 -5.66602 -21.167 -6.99902 -31.5s-2.16602 -21.166 -2.49902 -32.499s-0.5 -24 -0.5 -38v-48c0 -42 -2.33301 -76.833 -7 -104.5s-10.667 -50 -18 -67
s-15.333 -29.667 -24 -38s-17.334 -13.833 -26.001 -16.5c-9.33301 -3.33301 -15.333 -5.83301 -18 -7.5s-4 -3.83398 -4 -6.50098c0 -1.33301 1.16699 -2.33301 3.5 -3s7.16602 -1 14.499 -1c4.66699 0 11 1.16699 19 3.5s16.667 6 26 11s19 11.833 29 20.5
s19.667 19.334 29 32.001c6.66699 8.66699 13 18.834 19 30.501s11.333 26.167 16 43.5s8.5 38.5 11.5 63.5s4.5 55.167 4.5 90.5c0 10.667 -0.833008 22.667 -2.5 36s-3 26.5 -4 39.5s-1.16699 25.167 -0.5 36.5s3 20.333 7 27c5.33301 8.66699 13 14.334 23 17.001
s22 5.33398 36 8.00098c5.33301 1.33301 8.66602 2.33301 9.99902 3s2 2.33398 2 5.00098c0 3.33301 -0.666992 5.5 -2 6.5s-4.66602 1.83301 -9.99902 2.5c-7.33301 0.666992 -16.5 1.16699 -27.5 1.5s-21.167 5.16602 -30.5 14.499c-6 6 -9.5 15.667 -10.5 29
s-0.666992 28 1 44s3.5 31.833 5.5 47.5s3 28.5 3 38.5c0 25.333 -1.5 47 -4.5 65s-7.33301 33.833 -13 47.5s-12.5 25.5 -20.5 35.5s-16.667 19.333 -26 28c-15.333 14 -32.166 24.333 -50.499 31s-32.833 10 -43.5 10c-8.66699 0 -13 -2 -13 -6
c0 -2 1.16699 -3.33301 3.5 -4s6.5 -2 12.5 -4s13.5 -5.5 22.5 -10.5s17.667 -12.5 26 -22.5s15.666 -22.5 21.999 -37.5s9.5 -33.167 9.5 -54.5c0 -22.667 -0.166992 -42.834 -0.5 -60.501s-0.333008 -33.667 0 -48s1.16602 -27.333 2.49902 -39s3.33301 -22.5 6 -32.5
c4.66699 -17.333 13.167 -33.333 25.5 -48s23.833 -24 34.5 -28z" />
    <glyph glyph-name="asciitilde" unicode="~" horiz-adv-x="510" 
d="M110 201c0.666992 23.333 4.83398 40.168 12.501 50.501s18.167 15.5 31.5 15.5s27.5 -3.33301 42.5 -10s31.5 -14.667 49.5 -24c25.333 -12.667 46.166 -21.5 62.499 -26.5s32.166 -7.5 47.499 -7.5c12.667 0 24.834 2 36.501 6s21.667 10.667 30 20
s14.833 21.5 19.5 36.5s6.66699 33.833 6 56.5h-49c-1.33301 -44.667 -15 -66.667 -41 -66c-13.333 0 -27.333 3.16699 -42 9.5s-31.667 14.166 -51 23.499c-25.333 12 -45.666 20.667 -60.999 26s-31.333 8 -48 8c-27.333 0 -50.333 -9.66699 -69 -29
s-27.334 -49.333 -26.001 -90z" />
    <glyph glyph-name="uni00A0" unicode="&#xa0;" horiz-adv-x="325" 
 />
    <glyph glyph-name="exclamdown" unicode="&#xa1;" horiz-adv-x="320" 
d="M162 667c-15.333 0 -27.834 -5.16699 -37.501 -15.5s-14.5 -23.166 -14.5 -38.499c0 -14.667 4.83301 -26.334 14.5 -35.001s21.834 -13 36.501 -13c18 0 31 5.83301 39 17.5s12 22.834 12 33.501c0 11.333 -4 22.666 -12 33.999s-20.667 17 -38 17zM172.999 444
c-1.33301 19.333 -2.83301 32.833 -4.5 40.5s-5.16699 11.5 -10.5 11.5s-8.5 -3.5 -9.5 -10.5s-1.83301 -14.167 -2.5 -21.5c-0.666992 -4 -1.5 -17.167 -2.5 -39.5s-2.33301 -49.333 -4 -81l-5.5 -101.5c-2 -36 -3.66699 -69.5 -5 -100.5s-2.66602 -57.5 -3.99902 -79.5
s-2 -34.333 -2 -37c-2.66699 -37.333 -5.83398 -67.833 -9.50098 -91.5s-5.5 -37.167 -5.5 -40.5c0 -6.66699 2 -10 6 -10c3.33301 0 8.33301 1.66699 15 5c14 7.33301 28 17.5 42 30.5s24.667 25.5 32 37.5c3.33301 5.33301 5 10 5 14c0 2.66699 -0.333008 5.5 -1 8.5
s-1.66699 6.5 -3 10.5c-2 8 -3.83301 21.5 -5.5 40.5s-3.16699 39 -4.5 60l-3.5 57c-1 17 -1.5 27.5 -1.5 31.5z" />
    <glyph glyph-name="cent" unicode="&#xa2;" horiz-adv-x="571" 
d="M364 597c30 -1.33301 54.665 -6.33203 73.998 -14.999s32.333 -16.667 39 -24c7.33301 -9.33301 12.166 -18.833 14.499 -28.5s4.16602 -18.834 5.49902 -27.501c0 -8 1.66699 -12 5 -12c4.66699 0 7.33398 4 8.00098 12c0.666992 3.33301 1.33398 9 2.00098 17
s1.33398 16.5 2.00098 25.5s1.16699 18 1.5 27s0.5 16.5 0.5 22.5c0 4 -0.333008 6.83301 -1 8.5s-2.66699 3.5 -6 5.5c-24 9.33301 -48.833 15.833 -74.5 19.5s-46.834 5.5 -63.501 5.5l13 108c1.33301 5.33301 -2 7.33301 -10 6l-20 -4c-4 -1.33301 -6.5 -2.5 -7.5 -3.5
s-1.83301 -2.83301 -2.5 -5.5l-11 -100c-22 -1.33301 -42 -3.33301 -60 -6s-34.833 -6.66699 -50.5 -12s-30.167 -12 -43.5 -20s-26.666 -17.667 -39.999 -29c-7.33301 -6 -15.5 -14.667 -24.5 -26s-17.5 -24.833 -25.5 -40.5s-14.667 -33.5 -20 -53.5s-8 -42 -8 -66
c0 -36 5.5 -68.667 16.5 -98s26.167 -54.833 45.5 -76.5s41.833 -39.5 67.5 -53.5s53.5 -23.667 83.5 -29l-18 -152c-1.33301 -6 1.66699 -8 9 -6l23 5c5.33301 1.33301 8.33301 5 9 11l14 135c7.33301 -0.666992 14.333 -1 21 -1h22c18.667 0 39.834 1.16699 63.501 3.5
s46.834 6.5 69.501 12.5c4 1.33301 6.83301 3.16602 8.5 5.49902s3.16699 6.16602 4.5 11.499c0.666992 4.66699 1.83398 11.834 3.50098 21.501s3.16699 19.334 4.5 29.001s2.5 18.5 3.5 26.5s1.5 13 1.5 15c0 8 -2 12 -6 12s-7 -5 -9 -15
c-7.33301 -32 -22 -52.833 -44 -62.5s-50.667 -14.5 -86 -14.5c-8.66699 0 -16.834 0.166992 -24.501 0.5s-15.834 0.833008 -24.501 1.5zM280.998 174.001c-17.333 6 -34.668 15.001 -52.001 27.001s-33 27.5 -47 46.5s-25.333 41.667 -34 68s-13 57.166 -13 92.499
c0 26.667 4.33301 51.667 13 75s21.334 43.5 38.001 60.5s36.667 30.333 60 40s50 14.5 80 14.5z" />
    <glyph glyph-name="sterling" unicode="&#xa3;" horiz-adv-x="571" 
d="M251 0c21.333 0 40.666 -0.173828 57.999 -0.506836s34.333 -0.833008 51 -1.5c16.667 -1.33301 33 -2.16602 49 -2.49902s33.333 -0.5 52 -0.5c14 0 25 0.166992 33 0.5s13.833 1.33301 17.5 3s6 3.83398 7 6.50098s2.16699 6 3.5 10c2 8.66699 4 19.334 6 32.001
s3.83301 25.167 5.5 37.5s3 23.333 4 33s1.5 15.834 1.5 18.501c0 6 -0.666992 10 -2 12s-3 3 -5 3c-4.66699 0 -7.33398 -3.33301 -8.00098 -10c-5.33301 -30 -15.166 -51 -29.499 -63s-35.5 -18.333 -63.5 -19l-312 -3l-2 2c20.667 18 37.667 38.833 51 62.5
s24.166 47.5 32.499 71.5s14.5 46.833 18.5 68.5s7 39.5 9 53.5l5 42h140c8 0 13.333 2.66699 16 8l11 24c2.66699 6.66699 1 10 -5 10c-2.66699 0 -7.66699 -0.833008 -15 -2.5s-18 -2.5 -32 -2.5h-109l18 151c7.33301 60.667 24 107.167 50 139.5s58.667 48.5 98 48.5
c24.667 0 45 -3.33301 61 -10s28.667 -16 38 -28c8 -10.667 14 -22.667 18 -36s6 -23.666 6 -30.999c0 -10 2.66699 -15 8 -15c4 0 6.66699 4 8 12c0.666992 2.66699 1.16699 7.83398 1.5 15.501s0.833008 16.834 1.5 27.501s1.16699 22.167 1.5 34.5s0.5 24.5 0.5 36.5
c0 7.33301 -2.33301 11.333 -7 12s-9 1.33398 -13 2.00098s-8.66699 1.66699 -14 3c-10.667 3.33301 -23.834 6.16602 -39.501 8.49902s-31.5 3.5 -47.5 3.5c-19.333 0 -42.333 -3.33301 -69 -10s-54 -22 -82 -46c-17.333 -14.667 -31.833 -31.834 -43.5 -51.501
s-21.5 -40.5 -29.5 -62.5s-14.5 -44.5 -19.5 -67.5s-8.83301 -45.167 -11.5 -66.5l-10 -70h-79c-3.33301 0 -6.16602 -0.5 -8.49902 -1.5s-4.16602 -3.16699 -5.49902 -6.5l-12 -21c-2.66699 -6 -1.66699 -9 3 -9c2 0 4.5 0.333008 7.5 1s7.5 1 13.5 1h75l-13 -105
c-3.33301 -28 -7.66602 -54.5 -12.999 -79.5s-12.833 -47.333 -22.5 -67s-22.5 -36.334 -38.5 -50.001s-36.333 -23.167 -61 -28.5c-5.33301 -1.33301 -10 -3.16602 -14 -5.49902s-6 -6.16602 -6 -11.499c0 -4.66699 3 -7.5 9 -8.5s12.667 -1.5 20 -1.5h233z" />
    <glyph glyph-name="currency" unicode="&#xa4;" horiz-adv-x="571" 
d="M487 449l-41.998 43l-62 -65c-12 10.667 -26.333 19 -43 25s-35 9 -55 9h-1c-19.333 0 -37.5 -3 -54.5 -9s-31.833 -14.667 -44.5 -26l-60 66l-41 -43l66 -61c-8.66699 -12 -16.334 -26.833 -23.001 -44.5s-10 -38.167 -10 -61.5c0 -21.333 3.16699 -40.833 9.5 -58.5
s13.833 -32.167 22.5 -43.5l-63 -61l40 -43l59 66c11.333 -11.333 26.166 -20.166 44.499 -26.499s36.166 -9.16602 53.499 -8.49902c16.667 0 33.834 3.16699 51.501 9.5s33.167 15.5 46.5 27.5l60 -68l42 43l-65 62c8 11.333 14.667 26.166 20 44.499
s8.33301 39.166 9 62.499c0 21.333 -2.83301 40.5 -8.5 57.5s-12.167 31.167 -19.5 42.5zM380.002 286c0 -21.333 -2.83203 -39.5 -8.49902 -54.5s-13.167 -27.167 -22.5 -36.5s-19.833 -16.166 -31.5 -20.499s-23.5 -6.5 -35.5 -6.5c-10.667 0 -21.667 2.16699 -33 6.5
s-21.833 11.333 -31.5 21s-17.5 21.834 -23.5 36.501s-9 32 -9 52c0 32.667 8.66699 60.167 26 82.5s41 33.5 71 33.5h1c15.333 0 29 -3.16699 41 -9.5s22.167 -14.833 30.5 -25.5s14.666 -22.834 18.999 -36.501s6.5 -27.834 6.5 -42.501z" />
    <glyph glyph-name="yen" unicode="&#xa5;" horiz-adv-x="571" 
d="M323 306l151.994 0.00195312c8 0 12.667 2 14 6l6 23c2.66699 6 -0.333008 9 -9 9h-162l24.5 42.5l34 61l39 69.5l38.5 67.5l33 56c10 16.333 17.667 27.833 23 34.5c10 13.333 18.333 23.833 25 31.5s15.667 14.167 27 19.5
c6.66699 3.33301 14.167 6.16602 22.5 8.49902s15.166 3.5 20.499 3.5c8 0 12 2.66699 12 8c0 2.66699 -1.33301 4.5 -4 5.5s-5.66699 1.5 -9 1.5c-4.66699 0 -11.834 -0.166992 -21.501 -0.5l-29.5 -1c-10 -0.333008 -19.167 -0.666016 -27.5 -0.999023
s-13.166 -0.5 -14.499 -0.5c-3.33301 0 -11.333 0.5 -24 1.5s-25.334 1.5 -38.001 1.5c-10.667 0 -16 -2.33301 -16 -7c0 -3.33301 1.66699 -5.66602 5 -6.99902s7 -2.66602 11 -3.99902c10.667 -4.66699 16 -12.334 16 -23.001c0 -14 -6.33301 -31.667 -19 -53l-16.5 -30
l-26.5 -49l-32 -59l-32 -58.5l-27 -49l-17 -30.5c-4 5.33301 -10.5 15.666 -19.5 30.999l-31 54l-37 65l-36.5 64.5l-29.5 53l-16.5 29.5c-8.66699 16 -13 28.667 -13 38s4.66699 15.333 14 18c3.33301 1.33301 6.5 2.66602 9.5 3.99902s4.5 3 4.5 5
c0 3.33301 -1.33301 5.5 -4 6.5s-5.66699 1.5 -9 1.5c-19.333 0 -36.666 -0.5 -51.999 -1.5s-24.666 -1.5 -27.999 -1.5c-1.33301 0 -6.16602 0.166992 -14.499 0.5s-17.666 0.666016 -27.999 0.999023l-30.5 1c-10 0.333008 -17.333 0.5 -22 0.5
c-6.66699 0 -10 -2.66699 -10 -8c0 -2.66699 1.16699 -4.5 3.5 -5.5s4.83301 -1.5 7.5 -1.5c3.33301 0 9.33301 -0.833008 18 -2.5s17.334 -5.16699 26.001 -10.5c8 -5.33301 17.667 -14.5 29 -27.5s22.333 -28.5 33 -46.5l23 -39l33 -56l38 -64.5l38 -63.5l32 -52.5
l20 -31.5h-149c-6 0 -9.66699 -2 -11 -6l-7 -21c-1.33301 -3.33301 -1.66602 -6 -0.999023 -8s3.33398 -3 8.00098 -3h162v-141v-54c0 -18 -0.333008 -32.667 -1 -44c-0.666992 -15.333 -4.33398 -27.166 -11.001 -35.499s-18.667 -13.833 -36 -16.5
c-6.66699 -1.33301 -14.667 -2.16602 -24 -2.49902s-16.666 -0.5 -21.999 -0.5c-4.66699 0 -7 -2.66699 -7 -8c0 -4.66699 5.66699 -7 17 -7c13.333 0 26.833 0.166992 40.5 0.5s26.167 0.666016 37.5 0.999023s20.833 0.666016 28.5 0.999023s12.167 0.5 13.5 0.5
c0.666992 -0 4.83398 -0.166992 12.501 -0.5s17.167 -0.666016 28.5 -0.999023s24 -0.666016 38 -0.999023s27.667 -0.5 41 -0.5c10.667 0 16 2.33301 16 7c0 2 -1 3.83301 -3 5.5s-4 2.5 -6 2.5c-4.66699 0 -11.5 0.166992 -20.5 0.5s-17.167 1.16602 -24.5 2.49902
c-17.333 2.66699 -29.166 8.16699 -35.499 16.5s-9.83301 20.166 -10.5 35.499c-0.666992 11.333 -0.833984 26 -0.500977 44s0.5 36 0.5 54v141z" />
    <glyph glyph-name="brokenbar" unicode="&#xa6;" horiz-adv-x="510" 
d="M282 325v350h-54v-350h54zM282 -175v350h-54v-350h54z" />
    <glyph glyph-name="section" unicode="&#xa7;" horiz-adv-x="596" 
d="M408 93c29.333 16.667 53.6592 38.499 72.9922 65.499s29 60.833 29 101.5c0 18.667 -3.16699 36 -9.5 52s-15.666 31.5 -27.999 46.5s-28 30.167 -47 45.5s-40.833 31.666 -65.5 48.999l-26 18l-57.5 40c-17 12 -31.5 24 -43.5 36s-21.333 24.333 -28 37s-10 27 -10 43
c0 18 3.5 33.667 10.5 47s16.333 24.333 28 33s24.834 15 39.501 19s30 6 46 6c22.667 0 41.5 -1.66699 56.5 -5s26.833 -7.33301 35.5 -12s15 -9.33398 19 -14.001s6.66699 -8.33398 8 -11.001c2.66699 -4.66699 5.33398 -11.5 8.00098 -20.5
s4.33398 -16.167 5.00098 -21.5c0.666992 -3.33301 1.33398 -6 2.00098 -8s2.66699 -3 6 -3c4.66699 0 7 6.33301 7 19c0 29.333 0.666992 51.166 2 65.499s2 22.5 2 24.5c0 4 -3 6 -9 6c-3.33301 0 -7.16602 0.166992 -11.499 0.5s-10.833 1.5 -19.5 3.5
c-10.667 2.66699 -22.5 5 -35.5 7s-32.833 3 -59.5 3c-25.333 0 -50.166 -3.16699 -74.499 -9.5s-46 -16.166 -65 -29.499s-34.333 -30.166 -46 -50.499s-17.5 -44.5 -17.5 -72.5c0 -23.333 6 -45.166 18 -65.499s28.667 -41.166 50 -62.499
c-13.333 -5.33301 -26.833 -12.666 -40.5 -21.999s-26 -20.5 -37 -33.5s-20 -27.5 -27 -43.5s-10.5 -33.667 -10.5 -53c0 -20 2.83301 -38 8.5 -54s14.5 -31.333 26.5 -46s27 -29.334 45 -44.001s39 -30.667 63 -48l32 -23l54 -40.5c16 -12.333 29.833 -25 41.5 -38
s20.5 -26.667 26.5 -41s9 -30.5 9 -48.5c0 -37.333 -12.667 -66.833 -38 -88.5s-58.333 -32.5 -99 -32.5c-34.667 0 -65.5 6.16699 -92.5 18.5s-44.167 34.166 -51.5 65.499c-1.33301 6 -2.16602 11.833 -2.49902 17.5s-0.5 10.167 -0.5 13.5c0 6.66699 -2.66699 10 -8 10
c-4.66699 0 -7 -4.66699 -7 -14l-3 -34.5c-1.33301 -15.667 -2 -34.167 -2 -55.5c0 -11.333 0.666992 -18.666 2 -21.999s5 -6.66602 11 -9.99902c18 -8.66699 37.833 -14.667 59.5 -18s49.834 -5 84.501 -5c18.667 0 40.667 2.66699 66 8s47.666 14.333 66.999 27
c31.333 20.667 53 44.5 65 71.5s18 52.5 18 76.5c0 22 -3.66699 43 -11 63s-21 40.333 -41 61zM382.993 115.999c-11.333 10.667 -24.499 21.332 -39.499 31.999l-45.5 31l-28 19l-56.5 39.5c-16.333 11.667 -29.833 23 -40.5 34s-18.667 22.333 -24 34s-8 25.167 -8 40.5
c0 23.333 8.5 45 25.5 65s37.167 33.667 60.5 41c8.66699 -7.33301 17.167 -14.166 25.5 -20.499l27.5 -20.5l42 -30l54 -38c16 -11.333 29.667 -22.666 41 -33.999s20 -23.333 26 -36s9 -27.334 9 -44.001c0 -9.33301 -1.5 -19.333 -4.5 -30s-7.5 -21.167 -13.5 -31.5
s-13.333 -20 -22 -29s-18.334 -16.5 -29.001 -22.5z" />
    <glyph glyph-name="dieresis" unicode="&#xa8;" horiz-adv-x="911" 
d="M555 830c13.333 0 24.001 4.33301 32.001 13s12 19.667 12 33c0 12.667 -4.16699 22.5 -12.5 29.5s-18.5 10.5 -30.5 10.5c-15.333 0 -26.333 -4.83301 -33 -14.5s-10 -19.167 -10 -28.5s3.16699 -18.833 9.5 -28.5s17.166 -14.5 32.499 -14.5zM354.001 830
c13.333 0 24.001 4.33301 32.001 13s12 19.667 12 33c0 12.667 -4.16699 22.5 -12.5 29.5s-18.5 10.5 -30.5 10.5c-15.333 0 -26.333 -4.83301 -33 -14.5s-10 -19.167 -10 -28.5s3.16699 -18.833 9.5 -28.5s17.166 -14.5 32.499 -14.5z" />
    <glyph glyph-name="copyright" unicode="&#xa9;" horiz-adv-x="906" 
d="M454 -17c54 0 104.667 10.167 152 30.5s88.666 48.166 123.999 83.499s63.166 76.833 83.499 124.5s30.5 98.5 30.5 152.5c0 54.667 -10.167 105.834 -30.5 153.501s-48.166 89.167 -83.499 124.5s-76.666 63.333 -123.999 84s-98 31 -152 31
s-104.833 -10.333 -152.5 -31s-89.334 -48.667 -125.001 -84s-63.667 -76.833 -84 -124.5s-30.5 -98.834 -30.5 -153.501c0 -54 10.167 -104.833 30.5 -152.5s48.333 -89.167 84 -124.5s77.334 -63.166 125.001 -83.499s98.5 -30.5 152.5 -30.5zM454 27
c-48 0 -92.5 9.16699 -133.5 27.5s-76.333 43.333 -106 75s-53 68.667 -70 111s-25.5 87.166 -25.5 134.499c0 48 8.5 93 25.5 135s40.333 78.833 70 110.5s65 56.667 106 75s85.5 27.5 133.5 27.5s92.333 -9.16699 133 -27.5s75.834 -43.333 105.501 -75
s52.834 -68.5 69.501 -110.5s25 -87 25 -135c0 -47.333 -8.33301 -92.166 -25 -134.499s-39.834 -79.333 -69.501 -111s-64.834 -56.667 -105.501 -75s-85 -27.5 -133 -27.5zM477 150c8 0 22.332 0.5 42.999 1.5s42 4.5 64 10.5c8 2 13 4.83301 15 8.5
s4.33301 11.167 7 22.5c3.33301 15.333 5.83301 30 7.5 44s2.5 23 2.5 27c0 2.66699 -0.5 4.83398 -1.5 6.50098s-3.5 2.5 -7.5 2.5c-5.33301 0 -9 -3.33301 -11 -10c-2 -8 -4.5 -16.167 -7.5 -24.5s-8.16699 -15.833 -15.5 -22.5c-6 -6 -15.333 -11.667 -28 -17
s-33 -8 -61 -8c-23.333 0 -46.166 4.66699 -68.499 14s-42 23 -59 41s-30.667 40.5 -41 67.5s-15.5 58.167 -15.5 93.5c0 52.667 13.333 93 40 121s65 42 115 42c20.667 0 38.334 -1.5 53.001 -4.5s26.834 -6.33301 36.501 -10s17.167 -7.5 22.5 -11.5s9 -7 11 -9
c7.33301 -8 11.666 -16 12.999 -24s2.33301 -15.667 3 -23c0 -7.33301 3 -11 9 -11s9.33301 2.66699 10 8c0.666992 4.66699 1.33398 12.167 2.00098 22.5l2 31.5c0.666992 10.667 1.16699 20.167 1.5 28.5s0.5 13.166 0.5 14.499c0 3.33301 -0.666992 5 -2 5
s-3 -0.166992 -5 -0.5s-4 -0.5 -6 -0.5c-0.666992 0 -3.33398 0.5 -8.00098 1.5l-17 3.5l-19.5 4c-6.33301 1.33301 -11.5 2.33301 -15.5 3c-17.333 3.33301 -33.5 5.5 -48.5 6.5s-26.167 1.5 -33.5 1.5c-38 0 -71 -5.16699 -99 -15.5s-52 -25.166 -72 -44.499
c-6 -6 -13 -13.833 -21 -23.5s-15.5 -21.334 -22.5 -35.001s-12.833 -29.167 -17.5 -46.5s-7 -36.333 -7 -57c0 -35.333 6.16699 -67.5 18.5 -96.5s29.666 -53.667 51.999 -74s48.833 -36 79.5 -47s64.667 -16.5 102 -16.5z" />
    <glyph glyph-name="ordfeminine" unicode="&#xaa;" horiz-adv-x="400" 
d="M245 522c2 0 3.99805 -1.33691 5.99805 -4.00391l40 -90c2 -5.33301 0.666992 -8.66602 -4 -9.99902c-2.66699 -1.33301 -4 -3 -4 -5s5.66699 -3 17 -3c25.333 -1.33301 47 -2 65 -2h33c7.33301 0 11 1.66699 11 5c0 2.66699 -1.66699 4 -5 4h-11
c-3.33301 0 -7 0.666992 -11 2c-6 1.33301 -12.167 5.33301 -18.5 12s-14.5 19.334 -24.5 38.001c-6 11.333 -13.167 25.833 -21.5 43.5l-26.5 56.5l-27.5 60.5l-24.5 56l-19 43c-5.33301 11.667 -8.66602 18.834 -9.99902 21.501c-3.33301 7.33301 -6 12 -8 14s-4 3 -6 3
c-5.33301 0 -9.66602 -4 -12.999 -12l-127 -295c-5.33301 -12 -11.333 -21.667 -18 -29s-15.667 -11.666 -27 -12.999c-2.66699 -0.666992 -5.66699 -1 -9 -1h-7c-3.33301 0 -5 -1.33301 -5 -4c0 -3.33301 3.33301 -5 10 -5c13.333 0 25.833 0.333008 37.5 1
s20.167 1 25.5 1c4.66699 0 11.667 -0.333008 21 -1s17.333 -1 24 -1c6 0 9 1.66699 9 5c0 2.66699 -2 4 -6 4h-5c-3.33301 0 -6.5 1.16699 -9.5 3.5s-4.5 5.83301 -4.5 10.5c0 3.33301 0.666992 7.33301 2 12l4 14l22 60c1.33301 3.33301 3 5 5 5h120zM136.998 551.996
c-2.66699 0 -3.33203 1.33301 -1.99902 4l43 112c3.33301 8 6.66602 8 9.99902 0l46 -112c1.33301 -2.66699 0.333008 -4 -3 -4h-94z" />
    <glyph glyph-name="guillemotleft" unicode="&#xab;" horiz-adv-x="560" 
d="M481 140c2.66699 2.66699 4.00098 5.00098 4.00098 7.00098c0 1.33301 -1 2.83301 -3 4.5s-5.66699 5.16699 -11 10.5c-12 10.667 -25.5 23.334 -40.5 38.001l-43 43l-36.5 38c-10.667 11.333 -18 19.333 -22 24c4.66699 6.66699 11.667 15.667 21 27l30.5 36.5l33.5 40
l31.5 37l24 27.5c6.33301 7.33301 9.83301 11.666 10.5 12.999c4 4 6 8.33301 6 13c0 2 -1 3.83301 -3 5.5s-4 2.5 -6 2.5c-3.33301 0 -9.33301 -3.66699 -18 -11l-14.5 -14.5l-31 -30.5l-39 -38.5l-40 -39l-34 -33c-9.66699 -9.66699 -16.167 -15.834 -19.5 -18.501
c-12.667 -10.667 -19 -18 -19 -22c0 -3.33301 1.33301 -6.5 4 -9.5s7.33398 -7.83301 14.001 -14.5c4.66699 -5.33301 13.667 -15 27 -29l42 -45l42 -46l29 -32c7.33301 -8.66699 12.666 -14.5 15.999 -17.5s5.66602 -4.5 6.99902 -4.5c3.33301 0 6 1.66699 8 5z
M294.001 140.001c2.66699 2.66699 4.00098 5.00098 4.00098 7.00098c0 1.33301 -1 2.83301 -3 4.5s-5.66699 5.16699 -11 10.5c-12 10.667 -25.5 23.334 -40.5 38.001l-43 43l-36.5 38c-10.667 11.333 -18 19.333 -22 24c4.66699 6.66699 11.667 15.667 21 27l30.5 36.5
l33.5 40l31.5 37l24 27.5c6.33301 7.33301 9.83301 11.666 10.5 12.999c4 4 6 8.33301 6 13c0 2 -1 3.83301 -3 5.5s-4 2.5 -6 2.5c-3.33301 0 -9.33301 -3.66699 -18 -11l-14.5 -14.5l-31 -30.5l-39 -38.5l-40 -39l-34 -33
c-9.66699 -9.66699 -16.167 -15.834 -19.5 -18.501c-12.667 -10.667 -19 -18 -19 -22c0 -3.33301 1.33301 -6.5 4 -9.5s7.33398 -7.83301 14.001 -14.5c4.66699 -5.33301 13.667 -15 27 -29l42 -45l42 -46l29 -32c7.33301 -8.66699 12.666 -14.5 15.999 -17.5
s5.66602 -4.5 6.99902 -4.5c3.33301 0 6 1.66699 8 5z" />
    <glyph glyph-name="logicalnot" unicode="&#xac;" horiz-adv-x="510" 
d="M465 159v212h-420v-51h368v-161h52z" />
    <glyph glyph-name="uni00AD" unicode="&#xad;" horiz-adv-x="390" 
d="M73 310c-8 0 -13.333 -0.499023 -16 -1.49902s-4.66699 -3.16699 -6 -6.5l-15 -56c-2 -10 -0.333008 -15 5 -15c2.66699 0 7.83398 1.83301 15.501 5.5s16.167 6.83398 25.5 9.50098c5.33301 1.33301 14.5 3.16602 27.5 5.49902s27.5 4.66602 43.5 6.99902l50.5 7.5
l50 7.5l41.5 6l25 3.5c8 1.33301 15.833 3 23.5 5s11.5 6 11.5 12c0 4 -2.83301 6.66699 -8.5 8s-12.834 2 -21.501 2h-252z" />
    <glyph glyph-name="registered" unicode="&#xae;" horiz-adv-x="206" 
d="M103 592c26.667 0 48.667 8.33301 66 25s26 37.334 26 62.001c0 25.333 -8.66699 46.333 -26 63s-39.333 25 -66 25s-48.667 -8.33301 -66 -25s-26 -37.667 -26 -63c0 -24.667 8.66699 -45.334 26 -62.001s39.333 -25 66 -25zM104 607
c-22 0 -40.165 6.83301 -54.498 20.5s-21.5 31.167 -21.5 52.5s7.16699 38.666 21.5 51.999s32.166 20 53.499 20s39.166 -6.66699 53.499 -20s21.5 -30.666 21.5 -51.999s-7 -38.833 -21 -52.5s-31.667 -20.5 -53 -20.5zM69.002 672c0 -8 -0.163086 -14 -0.496094 -18
s-0.5 -7.33301 -0.5 -10c-0.666992 -3.33301 -1.33398 -5.16602 -2.00098 -5.49902s-3.33398 -0.5 -8.00098 -0.5c-2.66699 0 -4 -1 -4 -3c0 -1.33301 1.33301 -2 4 -2h5c1.33301 0 3.83301 0.166992 7.5 0.5s6.16699 0.5 7.5 0.5c2.66699 0 5.66699 -0.166992 9 -0.5
s5.66602 -0.5 6.99902 -0.5h4c2.66699 0 4 1 4 3c0 1.33301 -1 2 -3 2c-4 0 -7.33301 0.666992 -10 2c-0.666992 0.666992 -1.16699 2 -1.5 4s-0.5 8 -0.5 18v9h18l14 -19c7.33301 -10 13.333 -15.667 18 -17s10.334 -2 17.001 -2c4.66699 0 7 1 7 3c0 1.33301 -1 2 -3 2
c-1.33301 0 -3.16602 0.833008 -5.49902 2.5s-6.83301 6.5 -13.5 14.5l-17 21c7.33301 6 12.166 11.167 14.499 15.5s3.5 9.16602 3.5 14.499c0 12 -4.83301 19.5 -14.5 22.5s-18.834 4.5 -27.501 4.5c-4 0 -7.33301 -0.166992 -10 -0.5s-6.33398 -0.5 -11.001 -0.5
c-1.33301 0 -3.5 0.166992 -6.5 0.5s-5.16699 0.5 -6.5 0.5h-5c-3.33301 0 -5 -1 -5 -3c0 -1.33301 1 -2 3 -2c7.33301 0 11 -2.33301 11 -7c0 -2.66699 0.166992 -6 0.5 -10s0.5 -9.66699 0.5 -17v-22zM87.0059 722c1.33301 1.33301 2.99902 1.99902 4.99902 1.99902h4
c8 0 14.167 -2.16699 18.5 -6.5s6.5 -10.166 6.5 -17.499c0 -8.66699 -3 -14.667 -9 -18c-3.33301 -2 -6.66602 -3 -9.99902 -3c-7.33301 0 -12.333 1 -15 3v40z" />
    <glyph glyph-name="macron" unicode="&#xaf;" horiz-adv-x="911" 
d="M343 900c-6.66699 0 -10.332 -2 -10.999 -6l-8 -25c-0.666992 -4.66699 2.66602 -7 9.99902 -7h235c4.66699 0 7.66699 2 9 6l8 22c2.66699 6.66699 0 10 -8 10h-235z" />
    <glyph glyph-name="degree" unicode="&#xb0;" horiz-adv-x="308" 
d="M253 595c0 13.333 -2.50098 26.1689 -7.50098 38.502s-12 23.166 -21 32.499s-19.833 16.666 -32.5 21.999s-27 8 -43 8h-2c-30 0 -55 -10 -75 -30s-30 -45 -30 -75c0 -27.333 9.5 -51 28.5 -71s44.167 -30 75.5 -30c14 0 27.333 2.5 40 7.5s23.834 12.167 33.501 21.5
s17.5 20.5 23.5 33.5s9 27.5 9 43.5zM205.999 595.003c0 -18 -5.66895 -33.166 -17.002 -45.499s-25.666 -18.5 -42.999 -18.5s-31.666 6 -42.999 18s-17 26.667 -17 44c0 15.333 5 30 15 44s24.667 21 44 21c21.333 0 36.833 -6.83301 46.5 -20.5
s14.5 -27.834 14.5 -42.501z" />
    <glyph glyph-name="plusminus" unicode="&#xb1;" horiz-adv-x="510" 
d="M230 524v-187h-188v-51h188v-189h52v189h186v51h-187v187h-51zM468 50h-426v-50h426v50z" />
    <glyph glyph-name="twosuperior" unicode="&#xb2;" horiz-adv-x="444" 
d="M316 305c8 0 15.332 1.16602 21.999 3.49902s11.667 6.83301 15 13.5c2.66699 4.66699 5.33398 11 8.00098 19s5.16699 16 7.5 24s4.16602 15.5 5.49902 22.5s2 11.833 2 14.5c0 6 -1.66699 9 -5 9s-6.33301 -3.33301 -9 -10c-5.33301 -16 -13.166 -28 -23.499 -36
s-27.833 -13 -52.5 -15c-2.66699 0 -9.66699 -0.333008 -21 -1s-23.5 -1.16699 -36.5 -1.5s-25.167 -0.666016 -36.5 -0.999023s-18.333 -0.5 -21 -0.5h-33c-2 0 -2.83301 0.5 -2.5 1.5s0.166016 1.83301 -0.500977 2.5l76 62.5c26 22.333 49.833 46 71.5 71
s39.5 51.167 53.5 78.5s21 56 21 86c0 15.333 -3.16699 30.166 -9.5 44.499s-15.833 27 -28.5 38s-28.5 19.833 -47.5 26.5s-40.833 10 -65.5 10c-23.333 0 -44.666 -2.33301 -63.999 -7s-36.333 -10.667 -51 -18c-3.33301 -1.33301 -5.33301 -2.83301 -6 -4.5
s-1 -4.83398 -1 -9.50098c0 -4 0.166992 -9.66699 0.5 -17l1 -22c0.333008 -7.33301 0.833008 -13.833 1.5 -19.5s1 -9.16699 1 -10.5c1.33301 -7.33301 3.33301 -11 6 -11c5.33301 0 8 3.66699 8 11c0 12.667 2.16699 23.334 6.5 32.001s9.5 16.334 15.5 23.001
c10 10.667 20.5 17.834 31.5 21.501s23.833 5.5 38.5 5.5c10 0 20.667 -1.83301 32 -5.5s21.833 -9.83398 31.5 -18.501s17.667 -20.167 24 -34.5s9.5 -32.5 9.5 -54.5c0 -30 -7 -58.5 -21 -85.5s-32 -53 -54 -78s-46.5 -48.667 -73.5 -71l-78.5 -64.5
c-2 -2 -4.5 -4.33301 -7.5 -7s-4.5 -5.66699 -4.5 -9c0 -5.33301 3.66699 -8 11 -8h253z" />
    <glyph glyph-name="threesuperior" unicode="&#xb3;" horiz-adv-x="413" 
d="M158 301c27.333 0 52.8379 4.16699 76.5049 12.5s44.167 19.666 61.5 33.999s31 30.833 41 49.5s15 38.334 15 59.001c0 18.667 -4.5 34.834 -13.5 48.501s-19.667 25.167 -32 34.5s-25.333 16.666 -39 21.999s-25.167 8.66602 -34.5 9.99902v2
c6.66699 2.66699 15.334 7.16699 26.001 13.5s21 14 31 23s18.5 19.667 25.5 32s10.5 25.833 10.5 40.5c0 7.33301 -1.83301 15.833 -5.5 25.5s-10.334 19 -20.001 28s-23 16.5 -40 22.5s-38.833 9 -65.5 9c-28.667 0 -52 -2 -70 -6s-32.333 -8.33301 -43 -13
c-4.66699 -2 -7.33398 -4.33301 -8.00098 -7s-1 -5.33398 -1 -8.00098c0 -7.33301 0.666992 -16.666 2 -27.999s2.66602 -21.666 3.99902 -30.999c0.666992 -7.33301 3 -11 7 -11c3.33301 0 5 4.33301 5 13c0 18.667 8.66699 34.167 26 46.5s37.666 18.5 60.999 18.5
c17.333 0 31.666 -2.83301 42.999 -8.5s20.166 -12.5 26.499 -20.5s10.833 -16.167 13.5 -24.5s4 -15.166 4 -20.499c0 -16 -3.83301 -30.167 -11.5 -42.5s-17 -22.666 -28 -30.999s-22.167 -15 -33.5 -20s-20.333 -7.83301 -27 -8.5c-12 -2 -18 -5.66699 -18 -11
c0 -2 1.33301 -3.66699 4 -5s8 -2.66602 16 -3.99902c12.667 -1.33301 26 -4.5 40 -9.5s26.667 -11.667 38 -20s20.833 -18.833 28.5 -31.5s11.5 -27.334 11.5 -44.001c0 -36 -10.5 -63.167 -31.5 -81.5s-46.5 -27.5 -76.5 -27.5c-19.333 0 -35.333 2 -48 6
s-23 9.5 -31 16.5s-13.833 15 -17.5 24s-5.83398 18.5 -6.50098 28.5c-0.666992 5.33301 -2.66699 8 -6 8s-5.33301 -3 -6 -9c-1.33301 -6.66699 -2.16602 -16.834 -2.49902 -30.501s-0.5 -24.834 -0.5 -33.501c0 -9.33301 0.5 -15.333 1.5 -18s4.16699 -5.66699 9.5 -9
c7.33301 -4 19.5 -7.16699 36.5 -9.5s34.167 -3.5 51.5 -3.5z" />
    <glyph glyph-name="acute" unicode="&#xb4;" horiz-adv-x="911" 
d="M583 933c-4 6 -7.33008 9.00195 -9.99707 9.00195s-5.83398 -0.833008 -9.50098 -2.5s-9.83398 -5.16699 -18.501 -10.5c-2 -1.33301 -8.5 -5.16602 -19.5 -11.499l-38 -23l-43.5 -27.5c-14.667 -9.33301 -26.334 -17 -35.001 -23
c-4.66699 -2.66699 -7 -5.33398 -7 -8.00098c0 -4 1.66699 -6 5 -6c2 0 7 1.66699 15 5s18.167 7.16602 30.5 11.499s25.5 8.5 39.5 12.5s28.167 7.66699 42.5 11s27.5 5.66602 39.5 6.99902c8.66699 1.33301 15.5 1.66602 20.5 0.999023s8.16699 -1 9.5 -1
c2 0 3.83301 0.833008 5.5 2.5s1.16699 4.83398 -1.5 9.50098l-14 25.5z" />
    <glyph glyph-name="mu" unicode="&#xb5;" horiz-adv-x="576" 
d="M70 150c0 -37.333 -0.329102 -72.167 -0.996094 -104.5s-1.5 -64 -2.5 -95s-2.16699 -62.333 -3.5 -94s-3 -65.5 -5 -101.5l12 -5l90 50c-2.66699 12.667 -5.16699 28 -7.5 46s-4.66602 37.667 -6.99902 59s-4.33301 43.5 -6 66.5s-3.16699 45.833 -4.5 68.5
c12.667 -20 28.667 -34.167 48 -42.5s41.666 -12.5 66.999 -12.5c22.667 0 42.5 3 59.5 9s32.167 14.167 45.5 24.5s24.833 22.5 34.5 36.5s18.167 29 25.5 45c1.33301 -24 4.16602 -43.333 8.49902 -58s9.66602 -26.334 15.999 -35.001s13.833 -14.5 22.5 -17.5
s18 -4.5 28 -4.5c20 0 36.667 6.83301 50 20.5s22 32.167 26 55.5l-15 7c-4 -10 -8.66699 -18 -14 -24s-12 -9 -20 -9c-9.33301 0 -17 4.33301 -23 13s-9 23 -9 43v359h-75v-250c0 -31.333 -4 -56.666 -12 -75.999s-18.167 -34.5 -30.5 -45.5s-26.333 -18.5 -42 -22.5
s-30.834 -6 -45.501 -6c-42.667 0 -75.834 13.5 -99.501 40.5s-35.5 71.833 -35.5 134.5v225h-75v-300z" />
    <glyph glyph-name="mu" unicode="&#x3bc;" horiz-adv-x="576" 
d="M70 150c0 -37.333 -0.329102 -72.167 -0.996094 -104.5s-1.5 -64 -2.5 -95s-2.16699 -62.333 -3.5 -94s-3 -65.5 -5 -101.5l12 -5l90 50c-2.66699 12.667 -5.16699 28 -7.5 46s-4.66602 37.667 -6.99902 59s-4.33301 43.5 -6 66.5s-3.16699 45.833 -4.5 68.5
c12.667 -20 28.667 -34.167 48 -42.5s41.666 -12.5 66.999 -12.5c22.667 0 42.5 3 59.5 9s32.167 14.167 45.5 24.5s24.833 22.5 34.5 36.5s18.167 29 25.5 45c1.33301 -24 4.16602 -43.333 8.49902 -58s9.66602 -26.334 15.999 -35.001s13.833 -14.5 22.5 -17.5
s18 -4.5 28 -4.5c20 0 36.667 6.83301 50 20.5s22 32.167 26 55.5l-15 7c-4 -10 -8.66699 -18 -14 -24s-12 -9 -20 -9c-9.33301 0 -17 4.33301 -23 13s-9 23 -9 43v359h-75v-250c0 -31.333 -4 -56.666 -12 -75.999s-18.167 -34.5 -30.5 -45.5s-26.333 -18.5 -42 -22.5
s-30.834 -6 -45.501 -6c-42.667 0 -75.834 13.5 -99.501 40.5s-35.5 71.833 -35.5 134.5v225h-75v-300z" />
    <glyph glyph-name="paragraph" unicode="&#xb6;" horiz-adv-x="712" 
d="M384 683l-0.00292969 -609c0 -24 -0.166992 -47.667 -0.5 -71s-0.666016 -45.166 -0.999023 -65.499s-1 -38.833 -2 -55.5s-1.83301 -30 -2.5 -40c-1.33301 -14 -2.66602 -23.5 -3.99902 -28.5s-2 -8.16699 -2 -9.5c0 -4 2.66699 -6 8 -6c7.33301 0 15.833 2 25.5 6
s17.834 9 24.501 15c4.66699 4.66699 6.66699 9 6 13c-1.33301 10.667 -2.16602 24.667 -2.49902 42s-0.5 37 -0.5 59v68v73v389v95v60v38c0 10 0.333008 20 1 30c1.33301 13.333 5 22.833 11 28.5s14.667 8.5 26 8.5c14.667 0 24.834 -3.83301 30.501 -11.5
s8.5 -16.834 8.5 -27.501v-614c0 -48 -0.5 -89.167 -1.5 -123.5s-2.16699 -57.166 -3.5 -68.499c-0.666992 -10.667 -1.66699 -19 -3 -25s-2 -10.333 -2 -13c0 -3.33301 2 -5 6 -5c6.66699 0 14.667 2 24 6s17.333 9 24 15c4.66699 4.66699 7 9.33398 7 14.001
c-1.33301 21.333 -2 48 -2 80v120v393v95v59c0 15.333 0.166992 27.5 0.5 36.5s0.833008 17.5 1.5 25.5c1.33301 17.333 4.33301 30.333 9 39s13.667 14.667 27 18c8 2 17.333 3 28 3c5.33301 0 8 2 8 6c0 5.33301 -5.33301 8 -16 8
c-11.333 0 -25.666 -0.166992 -42.999 -0.5l-51 -1c-16.667 -0.333008 -31.334 -0.666016 -44.001 -0.999023s-20.334 -0.5 -23.001 -0.5c-5.33301 0 -13 0.166992 -23 0.5l-31 1c-10.667 0.333008 -20.834 0.666016 -30.501 0.999023s-16.834 0.5 -21.501 0.5
c-30 0 -57 -2 -81 -6s-45.167 -9.5 -63.5 -16.5s-34.5 -15 -48.5 -24s-26 -18.5 -36 -28.5c-17.333 -16.667 -33 -38.5 -47 -65.5s-21 -58.167 -21 -93.5c0 -33.333 6.16699 -63.5 18.5 -90.5s29.5 -50 51.5 -69s48.167 -33.667 78.5 -44s63.166 -15.5 98.499 -15.5h10
c4.66699 0 8.33398 0.333008 11.001 1c2.66699 0 5.16699 0.5 7.5 1.5s3.5 2.83301 3.5 5.5c0 5.33301 -2.66699 8.5 -8 9.5s-12.333 4.16699 -21 9.5c-23.333 15.333 -41.666 39.666 -54.999 72.999s-20 73 -20 119c0 8 0.5 17.833 1.5 29.5s2.66699 24 5 37
s5.83301 26.167 10.5 39.5s10.667 25.666 18 36.999c12 19.333 28.167 34.333 48.5 45s38.833 16 55.5 16c11.333 0 17 -13.333 17 -40z" />
    <glyph glyph-name="periodcentered" unicode="&#xb7;" horiz-adv-x="250" 
d="M124 232c17.333 0 31.002 5.66602 41.002 16.999s15 25 15 41s-5.33301 28.667 -16 38s-23.667 14 -39 14c-10 0 -18.333 -1.83301 -25 -5.5s-12.334 -8.16699 -17.001 -13.5s-8 -11.166 -10 -17.499s-3 -12.5 -3 -18.5c0 -12.667 4.16699 -25 12.5 -37
s22.166 -18 41.499 -18z" />
    <glyph glyph-name="cedilla" unicode="&#xb8;" horiz-adv-x="911" 
d="M472 0l-76.999 -62.9971c-8.66699 -6.66699 -13 -11.334 -13 -14.001c0 -3.33301 5 -6.33301 15 -9c29.333 -8.66699 48.666 -19.334 57.999 -32.001s14 -26.334 14 -41.001c0 -9.33301 -2.16699 -17.5 -6.5 -24.5s-10 -13 -17 -18s-15 -9.16699 -24 -12.5
s-17.833 -5.33301 -26.5 -6c-5.33301 -0.666992 -10 -1.5 -14 -2.5s-6 -3.83301 -6 -8.5c0 -5.33301 4.33301 -8 13 -8c9.33301 0 21.333 1.5 36 4.5s28.667 7.5 42 13.5c8.66699 3.33301 17.167 7.66602 25.5 12.999s15.833 11.5 22.5 18.5s12.167 14.667 16.5 23
s6.5 17.5 6.5 27.5c0 20.667 -8.83301 36.834 -26.5 48.501s-42.167 19.167 -73.5 22.5c2 2.66699 6.66699 7.33398 14 14.001l23 21.5c8 7.66699 15.667 14.667 23 21s12.333 10.166 15 11.499h-40z" />
    <glyph glyph-name="onesuperior" unicode="&#xb9;" horiz-adv-x="330" 
d="M200 595c0 49.333 0.499023 87.502 1.49902 114.502s1.5 41.833 1.5 44.5c0 8.66699 -2 13 -6 13c-2.66699 0 -5.66699 -1 -9 -3s-6.33301 -4 -9 -6c-1.33301 -0.666992 -5.66602 -3.33398 -12.999 -8.00098l-27 -17l-34 -21l-33.5 -20.5l-26.5 -16.5
c-7.33301 -4.66699 -11.333 -7.33398 -12 -8.00098c-2 -2 -3 -4.33301 -3 -7c0 -4 2 -6 6 -6c1.33301 0 2.83301 0.333008 4.5 1s3.16699 1.33398 4.5 2.00098c4 2 10 4.66699 18 8l25 10c8.66699 3.33301 16.667 6.16602 24 8.49902s12.666 3.5 15.999 3.5
c5.33301 0 8.5 -1.5 9.5 -4.5s1.83301 -6.83301 2.5 -11.5c0.666992 -5.33301 1 -15.333 1 -30v-46v-110c0 -27.333 -0.166992 -52.666 -0.5 -75.999s-1.16602 -41.666 -2.49902 -54.999c-1.33301 -8.66699 -3.66602 -15.5 -6.99902 -20.5s-11 -8.83301 -23 -11.5
c-3.33301 -0.666992 -7.83301 -1.33398 -13.5 -2.00098s-11.334 -1.16699 -17.001 -1.5s-11 -0.666016 -16 -0.999023s-8.5 -0.5 -10.5 -0.5c-5.33301 0 -8 -2.33301 -8 -7s4 -7 12 -7c12 0 24.667 0.166992 38 0.5s25.333 0.5 36 0.5c11.333 0 20.666 0.166992 27.999 0.5
s11.666 0.5 12.999 0.5c2 0 13.167 -0.333008 33.5 -1s44.166 -1 71.499 -1c8 0 12 2.66699 12 8c0 4 -3 6 -9 6c-3.33301 0 -10.333 0.5 -21 1.5s-19 2.16699 -25 3.5c-11.333 2.66699 -18.666 6.5 -21.999 11.5s-5.66602 11.833 -6.99902 20.5
c-1.33301 13.333 -2.16602 31.666 -2.49902 54.999s-0.5 48.666 -0.5 75.999v110z" />
    <glyph glyph-name="ordmasculine" unicode="&#xba;" horiz-adv-x="437" 
d="M216 405c30.667 0 58.502 4.99805 83.502 14.998s46.167 23.5 63.5 40.5s30.833 37 40.5 60s14.5 47.5 14.5 73.5c0 26.667 -5 50.834 -15 72.501s-23.667 39.834 -41 54.501s-38.333 26 -63 34s-51.334 12 -80.001 12c-34 0 -63.333 -5.66699 -88 -17
s-45.334 -25.666 -62.001 -42.999s-29 -36.833 -37 -58.5s-12 -42.5 -12 -62.5c0 -22.667 3.83301 -44.834 11.5 -66.501s19.5 -41 35.5 -58s36.333 -30.667 61 -41s54 -15.5 88 -15.5zM230.002 431.998c-18.667 0 -36.3291 4.16895 -52.9961 12.502
s-31.334 19.833 -44.001 34.5s-22.834 32 -30.501 52s-11.5 42 -11.5 66c0 24.667 3.5 46 10.5 64s16.167 33 27.5 45s24.166 20.833 38.499 26.5s28.5 8.5 42.5 8.5c16.667 0 33.167 -3.5 49.5 -10.5s31 -17.333 44 -31s23.5 -30.334 31.5 -50.001s12 -42.5 12 -68.5
c0 -32 -4.33301 -57.667 -13 -77s-19.334 -34.333 -32.001 -45s-25.667 -17.834 -39 -21.501s-24.333 -5.5 -33 -5.5z" />
    <glyph glyph-name="guillemotright" unicode="&#xbb;" horiz-adv-x="560" 
d="M79 469c-2.66699 -2.66699 -4.00098 -4.99902 -4.00098 -6.99902c0 -1.33301 1 -2.83301 3 -4.5s5.66699 -5.16699 11 -10.5c12 -10.667 25.5 -23.334 40.5 -38.001l43 -43l36.5 -38c10.667 -11.333 18 -19.333 22 -24l-21.5 -27l-30 -36.5l-33.5 -40l-31.5 -37l-24 -28
c-6.33301 -7.66699 -9.83301 -11.834 -10.5 -12.501c-4 -4 -6 -8.33301 -6 -13c0 -2 1 -3.83301 3 -5.5s4 -2.5 6 -2.5c3.33301 0 9.33301 3.66699 18 11l14.5 14.5l31 30.5l39 38.5l40 39l34 33c9.66699 9.66699 16.167 15.834 19.5 18.501
c7.33301 6 12.333 10.833 15 14.5s4 6.16699 4 7.5c0 3.33301 -1.33301 6.5 -4 9.5s-7.33398 7.83301 -14.001 14.5c-5.33301 4.66699 -14.5 14.167 -27.5 28.5l-41.5 45.5l-42 46l-29 32c-7.33301 8.66699 -12.666 14.5 -15.999 17.5s-5.66602 4.5 -6.99902 4.5
c-3.33301 0 -6 -1.66699 -8 -5zM265.999 469.001c-2.66699 -2.66699 -4.00098 -4.99902 -4.00098 -6.99902c0 -1.33301 1 -2.83301 3 -4.5s5.66699 -5.16699 11 -10.5c12 -10.667 25.5 -23.334 40.5 -38.001l43 -43l36.5 -38c10.667 -11.333 18 -19.333 22 -24l-21.5 -27
l-30 -36.5l-33.5 -40l-31.5 -37l-24 -28c-6.33301 -7.66699 -9.83301 -11.834 -10.5 -12.501c-4 -4 -6 -8.33301 -6 -13c0 -2 1 -3.83301 3 -5.5s4 -2.5 6 -2.5c3.33301 0 9.33301 3.66699 18 11l14.5 14.5l31 30.5l39 38.5l40 39l34 33
c9.66699 9.66699 16.167 15.834 19.5 18.501c7.33301 6 12.333 10.833 15 14.5s4 6.16699 4 7.5c0 3.33301 -1.33301 6.5 -4 9.5s-7.33398 7.83301 -14.001 14.5c-5.33301 4.66699 -14.5 14.167 -27.5 28.5l-41.5 45.5l-42 46l-29 32
c-7.33301 8.66699 -12.666 14.5 -15.999 17.5s-5.66602 4.5 -6.99902 4.5c-3.33301 0 -6 -1.66699 -8 -5z" />
    <glyph glyph-name="onequarter" unicode="&#xbc;" horiz-adv-x="793" 
d="M660 160v270c0 3.33301 -0.166992 5.83301 -0.5 7.5s-2.16602 2.5 -5.49902 2.5c-4.66699 0 -10 -3.66699 -16 -11l-24.5 -29l-46.5 -54l-57 -65.5l-55.5 -63.5l-42.5 -48.5c-11.333 -13 -17.333 -19.833 -18 -20.5c-1.33301 -1.33301 -3.16602 -3.5 -5.49902 -6.5
s-3.5 -6.16699 -3.5 -9.5c0 -5.33301 4.33301 -8 13 -8h209v-35c0 -16 -0.333008 -30.667 -1 -44c-0.666992 -8.66699 -2.66699 -15.667 -6 -21s-10.333 -8.66602 -21 -9.99902c-4.66699 -0.666992 -9.83398 -1.16699 -15.501 -1.5s-9.83398 -0.5 -12.501 -0.5
c-5.33301 0 -8 -2.33301 -8 -7c0 -4 2.66699 -6 8 -6c17.333 0 33.666 0.333008 48.999 1s24 1 26 1c1.33301 0 5 -0.166992 11 -0.5s13 -0.5 21 -0.5c8.66699 0 17.667 -0.166992 27 -0.5s18.333 -0.5 27 -0.5c6 0 9 2.33301 9 7c0 4 -2 6 -6 6
c-3.33301 0 -7.5 0.166992 -12.5 0.5s-9.83301 0.833008 -14.5 1.5c-10 1.33301 -16.667 4.66602 -20 9.99902s-5.66602 12.333 -6.99902 21c-1.33301 13.333 -1.83301 28 -1.5 44s0.5 27.667 0.5 35h65c6 0 10 2.66699 12 8c1.33301 5.33301 2.66602 11 3.99902 17
s2 9.66699 2 11c0 4 -2 6 -6 6c-1.33301 0 -4.16602 -1 -8.49902 -3s-10.833 -3 -19.5 -3h-49zM607 160h-165.001c2.66699 3.33301 8.33398 10 17.001 20l30.5 35l36.5 42.5l36 42l29 33.5c8 9.33301 13 15 15 17h1v-190zM189.999 565
c0 46.667 0.495117 82.832 1.49512 108.499s1.5 39.834 1.5 42.501c0 8.66699 -2 13 -6 13c-2.66699 0 -5.5 -1 -8.5 -3s-5.83301 -4 -8.5 -6c-1.33301 -0.666992 -5.5 -3.16699 -12.5 -7.5l-25.5 -16l-32.5 -20l-32 -19.5l-25 -15.5
c-7 -4.33301 -10.833 -6.83301 -11.5 -7.5c-2 -2 -3 -4.33301 -3 -7c0 -4 2 -6 6 -6c1.33301 0 2.83301 0.333008 4.5 1s3.16699 1.33398 4.5 2.00098c4 2 9.83301 4.5 17.5 7.5l23.5 9.5c8 3.33301 15.667 6.16602 23 8.49902s12.333 3.5 15 3.5
c5.33301 0 8.33301 -1.5 9 -4.5s1.33398 -6.83301 2.00098 -11.5s1 -14 1 -28v-44v-104c0 -25.333 -0.166992 -49.333 -0.5 -72s-1.16602 -40.334 -2.49902 -53.001c-1.33301 -8 -3.5 -14.333 -6.5 -19s-10.167 -8.33398 -21.5 -11.001
c-3.33301 -0.666992 -7.66602 -1.33398 -12.999 -2.00098s-10.833 -1.16699 -16.5 -1.5s-10.834 -0.666016 -15.501 -0.999023s-8 -0.5 -10 -0.5c-4.66699 0 -7 -2.33301 -7 -7c0 -4 3.66699 -6 11 -6c12 0 24.167 0.166992 36.5 0.5s23.5 0.5 33.5 0.5
c10.667 0 19.5 0.166992 26.5 0.5s11.167 0.5 12.5 0.5c2 0 12.833 -0.333008 32.5 -1s42.167 -1 67.5 -1c8 0 12 2.33301 12 7c0 4 -3 6 -9 6c-3.33301 0 -10.166 0.5 -20.499 1.5s-18.166 2.16699 -23.499 3.5c-11.333 2.66699 -18.333 6.33398 -21 11.001
s-4.66699 11 -6 19c-1.33301 12.667 -2.16602 30.334 -2.49902 53.001s-0.5 46.667 -0.5 72v104zM160.994 -14.002c4.66699 -3.33301 8.66699 -2.33203 12 3.00098l542 713c2.66699 4 2 7.33301 -2 10l-18 14c-3.33301 2.66699 -5.83301 3.16699 -7.5 1.5
s-3.5 -3.83398 -5.5 -6.50098l-540 -705c-4.66699 -6.66699 -5 -11 -1 -13z" />
    <glyph glyph-name="onehalf" unicode="&#xbd;" horiz-adv-x="851" 
d="M190 565c0 46.667 0.495117 82.832 1.49512 108.499s1.5 39.834 1.5 42.501c0 8.66699 -2 13 -6 13c-2.66699 0 -5.5 -1 -8.5 -3s-5.83301 -4 -8.5 -6c-1.33301 -0.666992 -5.5 -3.16699 -12.5 -7.5l-25.5 -16l-32.5 -20l-32 -19.5l-25 -15.5
c-7 -4.33301 -10.833 -6.83301 -11.5 -7.5c-2 -2 -3 -4.33301 -3 -7c0 -4 2 -6 6 -6c1.33301 0 2.83301 0.333008 4.5 1s3.16699 1.33398 4.5 2.00098c4 2 9.83301 4.5 17.5 7.5l23.5 9.5c8 3.33301 15.667 6.16602 23 8.49902s12.333 3.5 15 3.5
c5.33301 0 8.33301 -1.5 9 -4.5s1.33398 -6.83301 2.00098 -11.5s1 -14 1 -28v-44v-104c0 -25.333 -0.166992 -49.333 -0.5 -72s-1.16602 -40.334 -2.49902 -53.001c-1.33301 -8 -3.5 -14.333 -6.5 -19s-10.167 -8.33398 -21.5 -11.001
c-3.33301 -0.666992 -7.66602 -1.33398 -12.999 -2.00098s-10.833 -1.16699 -16.5 -1.5s-10.834 -0.666016 -15.501 -0.999023s-8 -0.5 -10 -0.5c-4.66699 0 -7 -2.33301 -7 -7c0 -4 3.66699 -6 11 -6c12 0 24.167 0.166992 36.5 0.5s23.5 0.5 33.5 0.5
c10.667 0 19.5 0.166992 26.5 0.5s11.167 0.5 12.5 0.5c2 0 12.833 -0.333008 32.5 -1s42.167 -1 67.5 -1c8 0 12 2.33301 12 7c0 4 -3 6 -9 6c-3.33301 0 -10.166 0.5 -20.499 1.5s-18.166 2.16699 -23.499 3.5c-11.333 2.66699 -18.333 6.33398 -21 11.001
s-4.66699 11 -6 19c-1.33301 12.667 -2.16602 30.334 -2.49902 53.001s-0.5 46.667 -0.5 72v104zM127.995 -14.002c4.66699 -4 9.00098 -2.99902 13.001 3.00098l542 713c2.66699 4 2 7.33301 -2 10l-18 14c-3.33301 2.66699 -5.83301 3.16699 -7.5 1.5
s-3.5 -3.83398 -5.5 -6.50098l-540 -705c-4.66699 -6.66699 -5.33398 -11 -2.00098 -13zM742.996 -0.000976562c7.33301 0 14.1709 1.16113 20.5039 3.49414s11.166 6.5 14.499 12.5c2.66699 4.66699 5.33398 10.834 8.00098 18.501s5 15.334 7 23.001s3.66699 14.667 5 21
s2 10.833 2 13.5c0 6 -1.66699 9 -5 9c-2.66699 0 -5.33398 -3.33301 -8.00098 -10c-4.66699 -15.333 -12.167 -26.666 -22.5 -33.999s-27.166 -12 -50.499 -14c-2.66699 0 -9.33398 -0.333008 -20.001 -1s-22.167 -1.16699 -34.5 -1.5s-23.833 -0.666016 -34.5 -0.999023
s-17.334 -0.5 -20.001 -0.5h-31c-2 0 -2.83301 0.5 -2.5 1.5s0.166016 1.83301 -0.500977 2.5c23.333 18 47.5 37.667 72.5 59s47.667 43.833 68 67.5s37.166 48.667 50.499 75s20 53.5 20 81.5c0 14.667 -3 28.667 -9 42s-15 25.333 -27 36s-27 19.167 -45 25.5
s-39 9.5 -63 9.5c-22.667 0 -43 -2.33301 -61 -7s-34 -10.334 -48 -17.001c-3.33301 -1.33301 -5.33301 -2.66602 -6 -3.99902s-1 -4.33301 -1 -9c0 -4 0.166992 -9.5 0.5 -16.5l1 -21c0.333008 -7 0.833008 -13.167 1.5 -18.5s1 -8.66602 1 -9.99902
c1.33301 -6.66699 3.33301 -10 6 -10c5.33301 0 8 3.33301 8 10c0 12 2 22.333 6 31s8.66699 16 14 22c9.33301 10 19.333 16.667 30 20s23 5 37 5c9.33301 0 19.333 -1.66699 30 -5s20.667 -9.16602 30 -17.499s17 -19.333 23 -33s9 -30.834 9 -51.501
c0 -28 -6.66699 -55 -20 -81s-30.5 -50.667 -51.5 -74s-44.333 -45.833 -70 -67.5l-74.5 -61.5c-2 -2 -4.33301 -4.16699 -7 -6.5s-4 -5.16602 -4 -8.49902c0 -5.33301 3.66699 -8 11 -8h240z" />
    <glyph glyph-name="threequarters" unicode="&#xbe;" horiz-adv-x="807" 
d="M674 160v269.999c0 6.66699 -2.33301 10 -7 10c-4 0 -9 -3.66699 -15 -11l-24.5 -29l-46.5 -54l-57 -65.5l-55.5 -63.5l-42.5 -48.5c-11.333 -13 -17.333 -19.833 -18 -20.5c-1.33301 -1.33301 -3.33301 -3.5 -6 -6.5s-4 -6.16699 -4 -9.5c0 -5.33301 4.33301 -8 13 -8
h209v-35c0 -16 -0.333008 -30.667 -1 -44c-0.666992 -8.66699 -2.66699 -15.667 -6 -21s-10.333 -8.66602 -21 -9.99902c-4.66699 -0.666992 -9.83398 -1.16699 -15.501 -1.5s-9.83398 -0.5 -12.501 -0.5c-4.66699 0 -7 -2.33301 -7 -7
c0 -1.33301 0.333008 -2.66602 1 -3.99902s2.66699 -2 6 -2c17.333 0 33.666 0.333008 48.999 1s24 1 26 1c1.33301 0 5 -0.166992 11 -0.5s13 -0.5 21 -0.5c8.66699 0 17.667 -0.166992 27 -0.5s18.333 -0.5 27 -0.5c6 0 9 2.33301 9 7c0 4 -1.66699 6 -5 6
s-7.66602 0.166992 -12.999 0.5s-10.333 0.833008 -15 1.5c-10 1.33301 -16.667 4.66602 -20 9.99902s-5.66602 12.333 -6.99902 21c-1.33301 13.333 -1.66602 28 -0.999023 44s1 27.667 1 35h64c6 0 10 2.66699 12 8c1.33301 5.33301 2.66602 11 3.99902 17s2 9.66699 2 11
c0 4 -2 6 -6 6c-1.33301 0 -4.16602 -1 -8.49902 -3s-10.833 -3 -19.5 -3h-48zM620 159.999h-165.001c2.66699 3.33301 8.33398 10 17.001 20l30.5 35l36.5 42.5l36 42l29 33.5c8 9.33301 13 15 15 17h1v-190zM220.999 543.999
c6.66699 2.66699 14.999 6.83496 24.999 12.502s19.667 13 29 22s17.5 19.333 24.5 31s10.5 24.5 10.5 38.5c0 6.66699 -1.66699 14.667 -5 24s-9.66602 18.333 -18.999 27s-22.166 15.834 -38.499 21.501s-37.166 8.5 -62.499 8.5c-27.333 0 -49.5 -1.83301 -66.5 -5.5
s-30.5 -7.83398 -40.5 -12.501c-4.66699 -2 -7.33398 -4.33301 -8.00098 -7s-1 -5.33398 -1 -8.00098c0 -6.66699 0.666992 -15.5 2 -26.5s2.66602 -20.833 3.99902 -29.5c0.666992 -6.66699 3 -10 7 -10c2.66699 0 4 4 4 12c0 17.333 8.33301 32 25 44s36 18 58 18
c16.667 0 30.334 -2.66699 41.001 -8s19.167 -11.833 25.5 -19.5s10.666 -15.5 12.999 -23.5s3.5 -14.333 3.5 -19c0 -15.333 -3.66699 -28.833 -11 -40.5s-16.166 -21.5 -26.499 -29.5s-20.833 -14.333 -31.5 -19s-19.334 -7.33398 -26.001 -8.00098
c-11.333 -2 -17 -5.66699 -17 -11c0 -2 1.33301 -3.5 4 -4.5s7.66699 -2.16699 15 -3.5c12 -1.33301 24.5 -4.33301 37.5 -9s25 -11 36 -19s20.167 -18 27.5 -30s11 -26 11 -42c0 -34 -10 -59.833 -30 -77.5s-44.333 -26.5 -73 -26.5c-18 0 -33.167 2 -45.5 6
s-22.166 9.33301 -29.499 16s-12.833 14.334 -16.5 23.001s-5.83398 17.667 -6.50098 27c-0.666992 4.66699 -2.33398 7 -5.00098 7c-3.33301 0 -5.33301 -2.66699 -6 -8c-1.33301 -6 -2.16602 -15.667 -2.49902 -29s-0.5 -24 -0.5 -32
c0 -8.66699 0.333008 -14.334 1 -17.001s3.66699 -5.66699 9 -9c6.66699 -4 18.167 -7 34.5 -9s32.833 -3 49.5 -3c26 0 50.167 4 72.5 12s41.833 18.667 58.5 32s29.667 28.833 39 46.5s14 36.5 14 56.5c0 17.333 -4.16699 32.5 -12.5 45.5s-18.5 24 -30.5 33
s-24.5 16 -37.5 21s-23.833 8.16699 -32.5 9.5v2zM158.998 -14c4.66699 -3.33301 8.66699 -2.33203 12 3.00098l542 713c2.66699 4 2.33398 7.33301 -0.999023 10l-19 14c-3.33301 2.66699 -5.83301 3.16699 -7.5 1.5s-3.5 -3.83398 -5.5 -6.50098l-539 -705
c-4.66699 -6.66699 -5.33398 -11 -2.00098 -13z" />
    <glyph glyph-name="questiondown" unicode="&#xbf;" horiz-adv-x="488" 
d="M265 -83c-22.667 0 -41.4961 4.33105 -56.4961 12.998s-27 19.5 -36 32.5s-15.333 26.833 -19 41.5s-5.5 28 -5.5 40c0 18 1.33301 34.833 4 50.5s7.33398 31.834 14.001 48.501s15.667 34.167 27 52.5s25.666 38.5 42.999 60.5c11.333 14 22.833 27.5 34.5 40.5
s23.167 27.167 34.5 42.5c14.667 18.667 22 35.334 22 50.001c0 9.33301 -2.33301 18.333 -7 27s-12 19.334 -22 32.001c-6 7.33301 -13.333 15 -22 23s-15.334 12 -20.001 12c-2 0 -4.33301 -1 -7 -3s-4 -4 -4 -6c0 -3.33301 3 -9 9 -17
c7.33301 -9.33301 12.333 -18.333 15 -27s4 -16.667 4 -24c0 -4 -0.333008 -8.33301 -1 -13s-2.5 -10 -5.5 -16s-7.16699 -13 -12.5 -21s-12.666 -18 -21.999 -30c-24 -30 -46.5 -56.333 -67.5 -79s-39.167 -44.5 -54.5 -65.5s-27.5 -42.833 -36.5 -65.5
s-13.5 -48.334 -13.5 -77.001c0 -17.333 3.16699 -35.333 9.5 -54s16.666 -35.5 30.999 -50.5s33 -27.333 56 -37s51.167 -14.5 84.5 -14.5c38.667 0 72.167 4.33301 100.5 13s50.166 17.667 65.499 27c5.33301 3.33301 8.5 6 9.5 8s1.5 4.66699 1.5 8v33
c0 12 -0.166992 23.667 -0.5 35s-0.833008 21.5 -1.5 30.5s-1.33398 15.167 -2.00098 18.5c-0.666992 6.66699 -3.33398 10 -8.00098 10c-4 0 -6.66699 -5.66699 -8 -17c-1.33301 -17.333 -4.5 -33.5 -9.5 -48.5s-13.5 -29.833 -25.5 -44.5c-8 -10 -20.167 -19 -36.5 -27
s-36.833 -12 -61.5 -12zM263.004 666.998c-15.333 0 -27.834 -5.16699 -37.501 -15.5s-14.5 -23.166 -14.5 -38.499c0 -14.667 4.83301 -26.334 14.5 -35.001s21.834 -13 36.501 -13c18 0 31 5.83301 39 17.5s12 22.834 12 33.501c0 11.333 -4 22.666 -12 33.999
s-20.667 17 -38 17z" />
    <glyph glyph-name="Agrave" unicode="&#xc0;" horiz-adv-x="700" 
d="M95 107c-9.33301 -25.333 -19.833 -46.5 -31.5 -63.5s-29.167 -27.167 -52.5 -30.5c-4 -0.666992 -9 -1.16699 -15 -1.5s-10.667 -0.5 -14 -0.5c-6 0 -9 -2 -9 -6c0 -5.33301 6.33301 -8 19 -8c12 0 24 0.166992 36 0.5s23.333 0.666016 34 0.999023
s19.834 0.666016 27.501 0.999023s12.834 0.5 15.501 0.5s7.16699 -0.166992 13.5 -0.5s13.166 -0.666016 20.499 -0.999023l23 -1c8 -0.333008 15 -0.5 21 -0.5c10 0 15 2.66699 15 8c0 4 -3.33301 6 -10 6h-10c-8.66699 0 -17.167 2.33301 -25.5 7s-12.5 12 -12.5 22
c0 18.667 4.66699 41 14 67l60 177c2 5.33301 5.33301 8 10 8h215c4 0 7 -2 9 -6l93 -246c3.33301 -8 4 -14.167 2 -18.5s-4.66699 -7.16602 -8 -8.49902c-4.66699 -1.33301 -7 -3.66602 -7 -6.99902s2.66699 -5.16602 8 -5.49902s12.666 -0.833008 21.999 -1.5
c17.333 -0.666992 34.5 -1.16699 51.5 -1.5s32.5 -0.5 46.5 -0.5h37h22c5.33301 0 10 0.5 14 1.5s6 3.16699 6 6.5c0 4 -3.33301 6 -10 6c-5.33301 0 -11.5 0.333008 -18.5 1s-14.167 2.33398 -21.5 5.00098c-5.33301 1.33301 -11.166 3.66602 -17.499 6.99902s-13 9 -20 17
s-14.667 19 -23 33s-16.833 32 -25.5 54l-37.5 95l-47 120.5l-49.5 128.5l-45.5 119.5l-35 92.5c-9.66699 25.333 -15.834 41 -18.501 47c-6 15.333 -10.333 25.166 -13 29.499s-5.66699 6.5 -9 6.5s-6.33301 -2.33301 -9 -7s-7 -15.334 -13 -32.001zM235 328
c-4 0 -5 2.33301 -3 7l88 270c4.66699 14.667 9.66699 14.667 15 0l95 -270c1.33301 -4.66699 0 -7 -4 -7h-191zM401 830c6 0 9.00195 1.66797 9.00195 5.00098c0 2 -1.83301 4 -5.5 6s-8.16699 4.66699 -13.5 8l-31.5 21.5c-11 7.66699 -21 15 -30 22l-23.5 18.5
c-6.66699 5.33301 -11 9 -13 11c-4.66699 4.66699 -7.66699 8.5 -9 11.5s-3.33301 4.5 -6 4.5c-2 0 -4.16699 -0.5 -6.5 -1.5s-5.5 -2.16699 -9.5 -3.5c-6 -2.66699 -14.833 -5.66699 -26.5 -9l-33.5 -10c-7.33301 -2 -11 -4.66699 -11 -8c0 -4 9.66699 -9.66699 29 -17
c2.66699 -1.33301 8.5 -3.5 17.5 -6.5s19.833 -6.83301 32.5 -11.5s26 -9.33398 40 -14.001l39.5 -13c12.333 -4 23.166 -7.33301 32.499 -10s15.666 -4 18.999 -4z" />
    <glyph glyph-name="Aacute" unicode="&#xc1;" horiz-adv-x="700" 
d="M95 107c-9.33301 -25.333 -19.833 -46.5 -31.5 -63.5s-29.167 -27.167 -52.5 -30.5c-4 -0.666992 -9 -1.16699 -15 -1.5s-10.667 -0.5 -14 -0.5c-6 0 -9 -2 -9 -6c0 -5.33301 6.33301 -8 19 -8c12 0 24 0.166992 36 0.5s23.333 0.666016 34 0.999023
s19.834 0.666016 27.501 0.999023s12.834 0.5 15.501 0.5s7.16699 -0.166992 13.5 -0.5s13.166 -0.666016 20.499 -0.999023l23 -1c8 -0.333008 15 -0.5 21 -0.5c10 0 15 2.66699 15 8c0 4 -3.33301 6 -10 6h-10c-8.66699 0 -17.167 2.33301 -25.5 7s-12.5 12 -12.5 22
c0 18.667 4.66699 41 14 67l60 177c2 5.33301 5.33301 8 10 8h215c4 0 7 -2 9 -6l93 -246c3.33301 -8 4 -14.167 2 -18.5s-4.66699 -7.16602 -8 -8.49902c-4.66699 -1.33301 -7 -3.66602 -7 -6.99902s2.66699 -5.16602 8 -5.49902s12.666 -0.833008 21.999 -1.5
c17.333 -0.666992 34.5 -1.16699 51.5 -1.5s32.5 -0.5 46.5 -0.5h37h22c5.33301 0 10 0.5 14 1.5s6 3.16699 6 6.5c0 4 -3.33301 6 -10 6c-5.33301 0 -11.5 0.333008 -18.5 1s-14.167 2.33398 -21.5 5.00098c-5.33301 1.33301 -11.166 3.66602 -17.499 6.99902s-13 9 -20 17
s-14.667 19 -23 33s-16.833 32 -25.5 54l-37.5 95l-47 120.5l-49.5 128.5l-45.5 119.5l-35 92.5c-9.66699 25.333 -15.834 41 -18.501 47c-6 15.333 -10.333 25.166 -13 29.499s-5.66699 6.5 -9 6.5s-6.33301 -2.33301 -9 -7s-7 -15.334 -13 -32.001zM235 328
c-4 0 -5 2.33301 -3 7l88 270c4.66699 14.667 9.66699 14.667 15 0l95 -270c1.33301 -4.66699 0 -7 -4 -7h-191zM478 933c-4 6 -7.33008 9.00195 -9.99707 9.00195s-5.83398 -0.833008 -9.50098 -2.5s-9.83398 -5.16699 -18.501 -10.5
c-2 -1.33301 -8.5 -5.16602 -19.5 -11.499l-38 -23l-43.5 -27.5c-14.667 -9.33301 -26.334 -17 -35.001 -23c-4.66699 -2.66699 -7 -5.33398 -7 -8.00098c0 -4 1.66699 -6 5 -6c2 0 7 1.66699 15 5s18.167 7.16602 30.5 11.499s25.5 8.5 39.5 12.5s28.167 7.66699 42.5 11
s27.5 5.66602 39.5 6.99902c8.66699 1.33301 15.5 1.66602 20.5 0.999023s8.16699 -1 9.5 -1c2 0 3.83301 0.833008 5.5 2.5s1.16699 4.83398 -1.5 9.50098l-14 25.5z" />
    <glyph glyph-name="Acircumflex" unicode="&#xc2;" horiz-adv-x="700" 
d="M95 107c-9.33301 -25.333 -19.833 -46.5 -31.5 -63.5s-29.167 -27.167 -52.5 -30.5c-4 -0.666992 -9 -1.16699 -15 -1.5s-10.667 -0.5 -14 -0.5c-6 0 -9 -2 -9 -6c0 -5.33301 6.33301 -8 19 -8c12 0 24 0.166992 36 0.5s23.333 0.666016 34 0.999023
s19.834 0.666016 27.501 0.999023s12.834 0.5 15.501 0.5s7.16699 -0.166992 13.5 -0.5s13.166 -0.666016 20.499 -0.999023l23 -1c8 -0.333008 15 -0.5 21 -0.5c10 0 15 2.66699 15 8c0 4 -3.33301 6 -10 6h-10c-8.66699 0 -17.167 2.33301 -25.5 7s-12.5 12 -12.5 22
c0 18.667 4.66699 41 14 67l60 177c2 5.33301 5.33301 8 10 8h215c4 0 7 -2 9 -6l93 -246c3.33301 -8 4 -14.167 2 -18.5s-4.66699 -7.16602 -8 -8.49902c-4.66699 -1.33301 -7 -3.66602 -7 -6.99902s2.66699 -5.16602 8 -5.49902s12.666 -0.833008 21.999 -1.5
c17.333 -0.666992 34.5 -1.16699 51.5 -1.5s32.5 -0.5 46.5 -0.5h37h22c5.33301 0 10 0.5 14 1.5s6 3.16699 6 6.5c0 4 -3.33301 6 -10 6c-5.33301 0 -11.5 0.333008 -18.5 1s-14.167 2.33398 -21.5 5.00098c-5.33301 1.33301 -11.166 3.66602 -17.499 6.99902s-13 9 -20 17
s-14.667 19 -23 33s-16.833 32 -25.5 54l-37.5 95l-47 120.5l-49.5 128.5l-45.5 119.5l-35 92.5c-9.66699 25.333 -15.834 41 -18.501 47c-6 15.333 -10.333 25.166 -13 29.499s-5.66699 6.5 -9 6.5s-6.33301 -2.33301 -9 -7s-7 -15.334 -13 -32.001zM235 328
c-4 0 -5 2.33301 -3 7l88 270c4.66699 14.667 9.66699 14.667 15 0l95 -270c1.33301 -4.66699 0 -7 -4 -7h-191zM477 845c1.33301 1.33301 2.49805 2.83398 3.49805 4.50098s1.5 3.16699 1.5 4.5s-4 4.66602 -12 9.99902l-20 15.5l-32 24l-31.5 23.5
c-9.66699 7.33301 -15.5 11.666 -17.5 12.999c-4 3.33301 -7.16699 5.83301 -9.5 7.5s-4.5 2.5 -6.5 2.5c-3.33301 0 -8.66602 -3.33301 -15.999 -10c-2.66699 -2.66699 -9.5 -9 -20.5 -19l-35.5 -33l-35.5 -33c-11 -10 -17.833 -16.333 -20.5 -19
c-1.33301 -2 -2.66602 -3.83301 -3.99902 -5.5s-2 -3.5 -2 -5.5c0 -5.33301 2.33301 -8 7 -8s10.667 3.33301 18 10c6 4.66699 12.667 10.167 20 16.5s14.833 12.333 22.5 18l22.5 16c7.33301 5 14 9.16699 20 12.5c6.66699 3.33301 12 5 16 5
c1.33301 0 4.66602 -1.33301 9.99902 -4l15 -11l24 -18c8.66699 -6.66699 17 -13.667 25 -21s14.667 -13.666 20 -18.999c2.66699 -3.33301 5.33398 -5 8.00098 -5c2 0 5 2 9 6z" />
    <glyph glyph-name="Atilde" unicode="&#xc3;" horiz-adv-x="700" 
d="M95 107c-9.33301 -25.333 -19.833 -46.5 -31.5 -63.5s-29.167 -27.167 -52.5 -30.5c-4 -0.666992 -9 -1.16699 -15 -1.5s-10.667 -0.5 -14 -0.5c-6 0 -9 -2 -9 -6c0 -5.33301 6.33301 -8 19 -8c12 0 24 0.166992 36 0.5s23.333 0.666016 34 0.999023
s19.834 0.666016 27.501 0.999023s12.834 0.5 15.501 0.5s7.16699 -0.166992 13.5 -0.5s13.166 -0.666016 20.499 -0.999023l23 -1c8 -0.333008 15 -0.5 21 -0.5c10 0 15 2.66699 15 8c0 4 -3.33301 6 -10 6h-10c-8.66699 0 -17.167 2.33301 -25.5 7s-12.5 12 -12.5 22
c0 18.667 4.66699 41 14 67l60 177c2 5.33301 5.33301 8 10 8h215c4 0 7 -2 9 -6l93 -246c3.33301 -8 4 -14.167 2 -18.5s-4.66699 -7.16602 -8 -8.49902c-4.66699 -1.33301 -7 -3.66602 -7 -6.99902s2.66699 -5.16602 8 -5.49902s12.666 -0.833008 21.999 -1.5
c17.333 -0.666992 34.5 -1.16699 51.5 -1.5s32.5 -0.5 46.5 -0.5h37h22c5.33301 0 10 0.5 14 1.5s6 3.16699 6 6.5c0 4 -3.33301 6 -10 6c-5.33301 0 -11.5 0.333008 -18.5 1s-14.167 2.33398 -21.5 5.00098c-5.33301 1.33301 -11.166 3.66602 -17.499 6.99902s-13 9 -20 17
s-14.667 19 -23 33s-16.833 32 -25.5 54l-37.5 95l-47 120.5l-49.5 128.5l-45.5 119.5l-35 92.5c-9.66699 25.333 -15.834 41 -18.501 47c-6 15.333 -10.333 25.166 -13 29.499s-5.66699 6.5 -9 6.5s-6.33301 -2.33301 -9 -7s-7 -15.334 -13 -32.001zM235 328
c-4 0 -5 2.33301 -3 7l88 270c4.66699 14.667 9.66699 14.667 15 0l95 -270c1.33301 -4.66699 0 -7 -4 -7h-191zM421 830c8 0 16.333 2.83203 25 8.49902s17 12.334 25 20.001s15 15.334 21 23.001s10 13.5 12 17.5c2.66699 5.33301 4 9.66602 4 12.999c0 4 -2.33301 6 -7 6
c-3.33301 0 -7.33301 -3.66699 -12 -11c-0.666992 -1.33301 -2.5 -3.5 -5.5 -6.5s-7 -6.16699 -12 -9.5s-11.167 -6.33301 -18.5 -9s-15.666 -4 -24.999 -4c-8 0 -17.833 2 -29.5 6s-21.167 7.66699 -28.5 11l-44.5 21c-14.333 6.66699 -27.5 10 -39.5 10
c-8 0 -16.333 -2.66699 -25 -8s-17 -11.833 -25 -19.5s-15.167 -15.5 -21.5 -23.5s-11.166 -14.667 -14.499 -20c-2 -3.33301 -3.66699 -6 -5 -8s-2 -4.33301 -2 -7c0 -4 2 -6 6 -6s8.66699 3 14 9c2 2 4.5 5 7.5 9s7 8 12 12s11 7.5 18 10.5s14.833 4.5 23.5 4.5
c15.333 0 28.166 -2.83301 38.499 -8.5s20.166 -10.5 29.499 -14.5l32.5 -15.5c14.333 -7 29.833 -10.5 46.5 -10.5z" />
    <glyph glyph-name="Adieresis" unicode="&#xc4;" horiz-adv-x="700" 
d="M95 107c-9.33301 -25.333 -19.833 -46.5 -31.5 -63.5s-29.167 -27.167 -52.5 -30.5c-4 -0.666992 -9 -1.16699 -15 -1.5s-10.667 -0.5 -14 -0.5c-6 0 -9 -2 -9 -6c0 -5.33301 6.33301 -8 19 -8c12 0 24 0.166992 36 0.5s23.333 0.666016 34 0.999023
s19.834 0.666016 27.501 0.999023s12.834 0.5 15.501 0.5s7.16699 -0.166992 13.5 -0.5s13.166 -0.666016 20.499 -0.999023l23 -1c8 -0.333008 15 -0.5 21 -0.5c10 0 15 2.66699 15 8c0 4 -3.33301 6 -10 6h-10c-8.66699 0 -17.167 2.33301 -25.5 7s-12.5 12 -12.5 22
c0 18.667 4.66699 41 14 67l60 177c2 5.33301 5.33301 8 10 8h215c4 0 7 -2 9 -6l93 -246c3.33301 -8 4 -14.167 2 -18.5s-4.66699 -7.16602 -8 -8.49902c-4.66699 -1.33301 -7 -3.66602 -7 -6.99902s2.66699 -5.16602 8 -5.49902s12.666 -0.833008 21.999 -1.5
c17.333 -0.666992 34.5 -1.16699 51.5 -1.5s32.5 -0.5 46.5 -0.5h37h22c5.33301 0 10 0.5 14 1.5s6 3.16699 6 6.5c0 4 -3.33301 6 -10 6c-5.33301 0 -11.5 0.333008 -18.5 1s-14.167 2.33398 -21.5 5.00098c-5.33301 1.33301 -11.166 3.66602 -17.499 6.99902s-13 9 -20 17
s-14.667 19 -23 33s-16.833 32 -25.5 54l-37.5 95l-47 120.5l-49.5 128.5l-45.5 119.5l-35 92.5c-9.66699 25.333 -15.834 41 -18.501 47c-6 15.333 -10.333 25.166 -13 29.499s-5.66699 6.5 -9 6.5s-6.33301 -2.33301 -9 -7s-7 -15.334 -13 -32.001zM235 328
c-4 0 -5 2.33301 -3 7l88 270c4.66699 14.667 9.66699 14.667 15 0l95 -270c1.33301 -4.66699 0 -7 -4 -7h-191zM450 830c13.333 0 24.001 4.33301 32.001 13s12 19.667 12 33c0 12.667 -4.16699 22.5 -12.5 29.5s-18.5 10.5 -30.5 10.5
c-15.333 0 -26.333 -4.83301 -33 -14.5s-10 -19.167 -10 -28.5s3.16699 -18.833 9.5 -28.5s17.166 -14.5 32.499 -14.5zM249.001 830c13.333 0 24.001 4.33301 32.001 13s12 19.667 12 33c0 12.667 -4.16699 22.5 -12.5 29.5s-18.5 10.5 -30.5 10.5
c-15.333 0 -26.333 -4.83301 -33 -14.5s-10 -19.167 -10 -28.5s3.16699 -18.833 9.5 -28.5s17.166 -14.5 32.499 -14.5z" />
    <glyph glyph-name="Aring" unicode="&#xc5;" horiz-adv-x="700" 
d="M95 107c-9.33301 -25.333 -19.833 -46.5 -31.5 -63.5s-29.167 -27.167 -52.5 -30.5c-4 -0.666992 -9 -1.16699 -15 -1.5s-10.667 -0.5 -14 -0.5c-6 0 -9 -2 -9 -6c0 -5.33301 6.33301 -8 19 -8c12 0 24 0.166992 36 0.5s23.333 0.666016 34 0.999023
s19.834 0.666016 27.501 0.999023s12.834 0.5 15.501 0.5s7.16699 -0.166992 13.5 -0.5s13.166 -0.666016 20.499 -0.999023l23 -1c8 -0.333008 15 -0.5 21 -0.5c10 0 15 2.66699 15 8c0 4 -3.33301 6 -10 6h-10c-8.66699 0 -17.167 2.33301 -25.5 7s-12.5 12 -12.5 22
c0 18.667 4.66699 41 14 67l60 177c2 5.33301 5.33301 8 10 8h215c4 0 7 -2 9 -6l93 -246c3.33301 -8 4 -14.167 2 -18.5s-4.66699 -7.16602 -8 -8.49902c-4.66699 -1.33301 -7 -3.66602 -7 -6.99902s2.66699 -5.16602 8 -5.49902s12.666 -0.833008 21.999 -1.5
c17.333 -0.666992 34.5 -1.16699 51.5 -1.5s32.5 -0.5 46.5 -0.5h37h22c5.33301 0 10 0.5 14 1.5s6 3.16699 6 6.5c0 4 -3.33301 6 -10 6c-5.33301 0 -11.5 0.333008 -18.5 1s-14.167 2.33398 -21.5 5.00098c-5.33301 1.33301 -11.166 3.66602 -17.499 6.99902s-13 9 -20 17
s-14.667 19 -23 33s-16.833 32 -25.5 54l-37.5 95l-47 120.5l-49.5 128.5l-45.5 119.5l-35 92.5c-9.66699 25.333 -15.834 41 -18.501 47c-6 15.333 -10.333 25.166 -13 29.499s-5.66699 6.5 -9 6.5s-6.33301 -2.33301 -9 -7s-7 -15.334 -13 -32.001zM235 328
c-4 0 -5 2.33301 -3 7l88 270c4.66699 14.667 9.66699 14.667 15 0l95 -270c1.33301 -4.66699 0 -7 -4 -7h-191zM329 820c14.667 0 29.333 1.99902 44 5.99902s27.834 9.83301 39.501 17.5s21 16.834 28 27.501s10.5 23 10.5 37c0 17.333 -7.33301 31.166 -22 41.499
s-34.667 15.5 -60 15.5c-17.333 0 -33.166 -2.33301 -47.499 -7s-26.833 -11 -37.5 -19s-18.834 -17.167 -24.501 -27.5s-8.5 -21.166 -8.5 -32.499c0 -17.333 6.66699 -31.5 20 -42.5s32.666 -16.5 57.999 -16.5zM344.999 843.999c-12 0 -23.335 4.16797 -34.002 12.501
s-16 20.166 -16 35.499c0 8.66699 1.83301 16 5.5 22s8.33398 11 14.001 15s11.834 7 18.501 9s13 3 19 3c18 0 31.167 -4.66699 39.5 -14s12.5 -20 12.5 -32c0 -14 -5.66699 -26 -17 -36s-25.333 -15 -42 -15z" />
    <glyph glyph-name="AE" unicode="&#xc6;" horiz-adv-x="912" 
d="M473 341c6 0 9.00098 -2.66602 9.00098 -7.99902v-46c0 -48 -0.166992 -90.833 -0.5 -128.5s-1.83301 -67.167 -4.5 -88.5c-2 -14.667 -4.83301 -27 -8.5 -37s-10.5 -16 -20.5 -18c-4.66699 -1.33301 -9.33398 -2.33301 -14.001 -3s-9.33398 -1 -14.001 -1
c-5.33301 0 -8 -2 -8 -6c0 -5.33301 5.33301 -8 16 -8c7.33301 0 16 0.166992 26 0.5s19.667 0.833008 29 1.5c9.33301 0 17.5 0.166992 24.5 0.5s11.833 0.5 14.5 0.5c7.33301 0 17.333 -0.166992 30 -0.5s28.667 -1.16602 48 -2.49902
c19.333 -0.666992 42.833 -1.33398 70.5 -2.00098s60.5 -1 98.5 -1c10 0 18 0.166992 24 0.5s11 1.33301 15 3s7 4.16699 9 7.5s4 8.33301 6 15c1.33301 4.66699 2.66602 12 3.99902 22l4 30.5l3.5 28c1 8.33301 1.5 13.5 1.5 15.5
c0 3.33301 -0.166992 6.66602 -0.5 9.99902s-2.16602 5 -5.49902 5c-4 0 -7 -5 -9 -15c-3.33301 -20.667 -8.33301 -36.334 -15 -47.001s-16.667 -18.667 -30 -24s-29.333 -8.5 -48 -9.5s-34.667 -1.5 -48 -1.5c-24.667 0 -44.334 1 -59.001 3s-26.167 6 -34.5 12
s-14 14.167 -17 24.5s-4.83301 24.166 -5.5 41.499v31v50v52v39v45c0 6 2.33301 9 7 9h25h42c14.667 0 28.5 -0.166992 41.5 -0.5s22.167 -0.833008 27.5 -1.5c20 -2 34.333 -6.5 43 -13.5s14 -14.167 16 -21.5c1.33301 -5.33301 2.16602 -10 2.49902 -14
s0.5 -7.33301 0.5 -10c1.33301 -7.33301 4 -11 8 -11c3.33301 0 5.33301 2 6 6s1 7.33301 1 10c0 3.33301 0.333008 11.166 1 23.499s1.66699 23.5 3 33.5c1.33301 16.667 3 29.334 5 38.001s3 14.667 3 18c0 5.33301 -1.66699 8 -5 8c-2.66699 0 -7.66699 -4.33301 -15 -13
c-4.66699 -5.33301 -10.667 -8.66602 -18 -9.99902s-17 -2.66602 -29 -3.99902c-6 -0.666992 -17 -1.16699 -33 -1.5s-33 -0.5 -51 -0.5h-48h-27c-4 0 -6 3.33301 -6 10v317c0 6.66699 2 10 6 10h23c13.333 0 27.666 -0.166992 42.999 -0.5l44 -1
c14 -0.333008 23 -0.833008 27 -1.5c26.667 -3.33301 44.334 -7.83301 53.001 -13.5s14.667 -12.5 18 -20.5c2.66699 -6 4.33398 -12.667 5.00098 -20s1 -12.666 1 -15.999c0 -8.66699 2.66699 -13 8 -13c2 0 3.5 1.16699 4.5 3.5s1.83301 4.83301 2.5 7.5
s1.16699 7.16699 1.5 13.5s0.833008 13 1.5 20s1.16699 13.5 1.5 19.5s0.5 10.333 0.5 13c1.33301 14 3 24.5 5 31.5s3 12.167 3 15.5c0 6 -1.33301 9 -4 9s-5 -0.666992 -7 -2s-4.33301 -2.33301 -7 -3c-9.33301 -2 -23.666 -3.66699 -42.999 -5
c-6 0 -20.833 -0.166992 -44.5 -0.5s-49.167 -0.5 -76.5 -0.5h-73h-35c-4.66699 0 -10.334 0.666992 -17.001 2c-3.33301 0 -6.16602 0.166992 -8.49902 0.5s-4.5 0.5 -6.5 0.5c-6.66699 0 -11 -4.66699 -13 -14l-5 -13c-2 -5.33301 -7.66699 -15 -17 -29l-130 -204
l-110 -171.5l-82 -126.5c-22 -34 -37 -56.333 -45 -67l-26 -36c-8 -10.667 -16 -20.334 -24 -29.001s-16.5 -16.5 -25.5 -23.5s-18.833 -13.167 -29.5 -18.5c-8 -4 -16.167 -6.66699 -24.5 -8s-14.166 -2 -17.499 -2c-7.33301 0 -11 -2 -11 -6c0 -5.33301 4.33301 -8 13 -8
c12 0 24.333 0.166992 37 0.5s24.167 0.666016 34.5 0.999023s19.333 0.666016 27 0.999023s12.5 0.5 14.5 0.5c2.66699 0 8 -0.166992 16 -0.5s17.667 -0.666016 29 -0.999023s24 -0.666016 38 -0.999023s28 -0.5 42 -0.5c4.66699 0 8.66699 0.666992 12 2s5 3 5 5
c0 4.66699 -4 7 -12 7c-5.33301 0 -12.333 0.666992 -21 2s-16.334 3.33301 -23.001 6c-13.333 5.33301 -20 15 -20 29c0 9.33301 2.83301 21.5 8.5 36.5s17.167 36.5 34.5 64.5c4 7.33301 11.667 20.333 23 39l36 58.5l35 56l20 31.5
c2.66699 3.33301 5.33398 5.33301 8.00098 6s6 1 10 1h176zM482.001 385.001c0 -5.33301 -3 -8 -9 -8h-160c-6 0 -7.33301 3 -4 9c1.33301 2.66699 5.83301 10.5 13.5 23.5l28.5 47l36.5 59.5l37 60.5l30.5 50c8.66699 14.333 14.667 23.833 18 28.5c2 3.33301 4 5 6 5
s3 -1.66699 3 -5v-270z" />
    <glyph glyph-name="Ccedilla" unicode="&#xc7;" horiz-adv-x="805" 
d="M154 395c0 51.333 5.83301 98.8311 17.5 142.498s35.834 83.167 72.501 118.5c8.66699 8.66699 19.334 17.334 32.001 26.001s28.167 16.5 46.5 23.5s39.833 12.667 64.5 17s53.667 6.5 87 6.5c44 0 84 -5.66699 120 -17s62.667 -24.666 80 -39.999
c13.333 -11.333 23.666 -26.333 30.999 -45s11 -37.667 11 -57c0 -14 2.66699 -21 8 -21s8.33301 7 9 21c0 4 0.166992 10 0.5 18s0.5 17 0.5 27s0.166992 20.167 0.5 30.5s0.833008 19.5 1.5 27.5c1.33301 18 2.5 30.833 3.5 38.5s1.5 13.5 1.5 17.5
c0 3.33301 -0.833008 5.83301 -2.5 7.5s-5.16699 2.83398 -10.5 3.50098c-16 1.33301 -32.167 3.33301 -48.5 6l-53.5 9c-24.667 4.66699 -50 7.83398 -76 9.50098s-49 2.5 -69 2.5c-38.667 0 -73.5 -2.83301 -104.5 -8.5s-58.833 -13.167 -83.5 -22.5
s-46.667 -20.666 -66 -33.999s-36.333 -27.333 -51 -42c-22 -22 -40.333 -45.5 -55 -70.5s-26.167 -49.667 -34.5 -74s-14.166 -47.666 -17.499 -69.999s-5 -41.833 -5 -58.5c0 -24 1.83301 -48.833 5.5 -74.5s10 -51.167 19 -76.5s21.333 -50.333 37 -75s35.5 -48 59.5 -70
c34 -30.667 72.667 -54.834 116 -72.501s94.333 -28.5 153 -32.5l-59 -49c-8.66699 -6.66699 -13 -11.334 -13 -14.001c0 -3.33301 5 -6.33301 15 -9c29.333 -8.66699 48.666 -19.334 57.999 -32.001s14 -26.334 14 -41.001c0 -9.33301 -2.16699 -17.5 -6.5 -24.5
s-10 -13 -17 -18s-15 -9.16699 -24 -12.5s-17.833 -5.33301 -26.5 -6c-5.33301 -0.666992 -10 -1.5 -14 -2.5s-6 -3.83301 -6 -8.5c0 -5.33301 4.33301 -8 13 -8c9.33301 0 21.333 1.5 36 4.5s28.667 7.5 42 13.5c8.66699 3.33301 17.167 7.66602 25.5 12.999
s15.833 11.5 22.5 18.5s12.167 14.667 16.5 23s6.5 17.5 6.5 27.5c0 20.667 -8.83301 36.834 -26.5 48.501s-42.167 19.167 -73.5 22.5l9.5 9.5l14.5 14l17 15.5l15 13c3.33301 -0.666992 6.66602 -1 9.99902 -1h12c16 0 32.5 0.5 49.5 1.5s33.5 2.33301 49.5 4s31 4 45 7
s26 6.5 36 10.5c9.33301 4 15.166 7.5 17.499 10.5s5.16602 9.16699 8.49902 18.5c2.66699 8.66699 5.33398 19.834 8.00098 33.501s5 27.167 7 40.5s3.66699 25.166 5 35.499s2 16.5 2 18.5c0 4 -0.5 7.5 -1.5 10.5s-2.83301 4.5 -5.5 4.5c-4.66699 0 -8 -5 -10 -15
c-1.33301 -9.33301 -5.16602 -22.833 -11.499 -40.5s-14.833 -32.167 -25.5 -43.5c-20 -20.667 -44.5 -34.167 -73.5 -40.5s-62.5 -9.5 -100.5 -9.5c-53.333 0 -102.166 10.167 -146.499 30.5s-82.333 47.333 -114 81s-56.334 72.5 -74.001 116.5s-26.5 90 -26.5 138z" />
    <glyph glyph-name="Egrave" unicode="&#xc8;" horiz-adv-x="610" 
d="M178 287c0 -48 -0.166016 -90.8359 -0.499023 -128.503s-1.83301 -67.167 -4.5 -88.5c-2 -14.667 -4.83301 -27 -8.5 -37s-10.5 -16 -20.5 -18c-4.66699 -1.33301 -9.66699 -2.33301 -15 -3s-10.333 -1 -15 -1c-5.33301 0 -8 -2 -8 -6c0 -5.33301 5.33301 -8 16 -8
c7.33301 0 16.333 0.333008 27 1s21 1 31 1c10.667 0.666992 19.667 1 27 1h13c7.33301 0 17.333 -0.166992 30 -0.5s28.667 -1.16602 48 -2.49902c19.333 -0.666992 42.833 -1.33398 70.5 -2.00098s60.5 -1 98.5 -1c10 0 18 0.166992 24 0.5s11 1.33301 15 3
s7 4.16699 9 7.5s4 8.33301 6 15c1.33301 5.33301 2.66602 13 3.99902 23l4 30.5l3.5 28c1 8.33301 1.5 13.5 1.5 15.5c0 3.33301 -0.166992 6.66602 -0.5 9.99902s-2.16602 5 -5.49902 5c-4 0 -7 -5 -9 -15c-3.33301 -20.667 -8.33301 -36.5 -15 -47.5
s-16.667 -19.167 -30 -24.5s-29.333 -8.5 -48 -9.5s-34.667 -1.5 -48 -1.5c-24.667 0 -44.334 1 -59.001 3s-26.167 6 -34.5 12s-14 14.333 -17 25s-4.83301 24.667 -5.5 42v31v50v52v38v88c0 4.66699 2.33301 7 7 7c4 0 12.5 -0.166992 25.5 -0.5
s27 -0.666016 42 -0.999023s29.667 -0.833008 44 -1.5s24.833 -1.33398 31.5 -2.00098c19.333 -2 32.333 -6.5 39 -13.5s11 -14.167 13 -21.5c2 -6.66699 3.16699 -12.5 3.5 -17.5s0.5 -10.167 0.5 -15.5c0 -6 2.33301 -9 7 -9c3.33301 0 5.33301 2.16699 6 6.5
s1 8.5 1 12.5c0 2 0.166992 5.5 0.5 10.5s0.666016 10.667 0.999023 17l1 19c0.333008 6.33301 0.833008 12.166 1.5 17.499c1.33301 16.667 3 29.334 5 38.001s3 14.667 3 18c0 5.33301 -1.66699 8 -5 8c-2.66699 0 -7.66699 -4.33301 -15 -13
c-4.66699 -5.33301 -10.667 -8.66602 -18 -9.99902s-17 -2.66602 -29 -3.99902c-6 -0.666992 -17 -1.16699 -33 -1.5s-33 -0.5 -51 -0.5h-48h-27c-4 0 -6 3.33301 -6 10v276c0 6.66699 2 10 6 10h23c13.333 0 27.666 -0.166992 42.999 -0.5l44 -1
c14 -0.333008 23 -0.833008 27 -1.5c26.667 -3.33301 44.334 -7.83301 53.001 -13.5s14.667 -12.5 18 -20.5c2.66699 -6 4.33398 -12.667 5.00098 -20s1 -12.666 1 -15.999c0 -8.66699 2.66699 -13 8 -13c2 0 3.5 1.16699 4.5 3.5s1.83301 4.83301 2.5 7.5
s1.16699 7.16699 1.5 13.5s0.833008 13 1.5 20s1.16699 13.5 1.5 19.5s0.5 10.333 0.5 13c1.33301 14 3 24.5 5 31.5s3 12.167 3 15.5c0 6 -1.33301 9 -4 9s-5 -0.666992 -7 -2s-4.33301 -2.33301 -7 -3c-9.33301 -2 -23.666 -3.66699 -42.999 -5
c-6 0 -20.833 -0.166992 -44.5 -0.5s-49.167 -0.5 -76.5 -0.5h-73h-35l-41 2c-11.333 0.666992 -23.333 1 -36 1h-36c-10.667 0 -16 -2.66699 -16 -8c0 -4 2.66699 -6 8 -6c4.66699 0 10.5 -0.166992 17.5 -0.5s12.5 -1.16602 16.5 -2.49902
c16.667 -3.33301 27.667 -9.33301 33 -18s8.66602 -21.667 9.99902 -39c0.666992 -8 1.16699 -16.5 1.5 -25.5s0.5 -21.167 0.5 -36.5v-59v-95v-176zM375.001 829.997c6 0 9.00195 1.66797 9.00195 5.00098c0 2 -1.83301 4 -5.5 6s-8.16699 4.66699 -13.5 8l-31.5 21.5
c-11 7.66699 -21 15 -30 22l-23.5 18.5c-6.66699 5.33301 -11 9 -13 11c-4.66699 4.66699 -7.66699 8.5 -9 11.5s-3.33301 4.5 -6 4.5c-2 0 -4.16699 -0.5 -6.5 -1.5s-5.5 -2.16699 -9.5 -3.5c-6 -2.66699 -14.833 -5.66699 -26.5 -9l-33.5 -10
c-7.33301 -2 -11 -4.66699 -11 -8c0 -4 9.66699 -9.66699 29 -17c2.66699 -1.33301 8.5 -3.5 17.5 -6.5s19.833 -6.83301 32.5 -11.5s26 -9.33398 40 -14.001l39.5 -13c12.333 -4 23.166 -7.33301 32.499 -10s15.666 -4 18.999 -4z" />
    </font>
</defs>
</svg>
